<?xml version="1.0" standalone="no"?>
<!DOCTYPE svg PUBLIC "-//W3C//DTD SVG 1.1//EN" "http://www.w3.org/Graphics/SVG/1.1/DTD/svg11.dtd" >
<svg xmlns="http://www.w3.org/2000/svg">
<metadata>Generated by IcoMoon</metadata>
<defs>
<font id="uaepass" horiz-adv-x="1024">
<font-face units-per-em="1024" ascent="960" descent="-64" />
<missing-glyph horiz-adv-x="1024" />
<glyph unicode="&#x20;" horiz-adv-x="512" d="" />
<glyph unicode="&#xe900;" glyph-name="feedback" horiz-adv-x="1059" d="M324.793-40.413c-44.379 0-70.828 30.035-70.828 78.894v99.519h-28.69c-124.172 0-212.034 83.827-212.034 219.655v355.483c0 136.276 82.483 219.655 219.655 219.655h593.517c137.174 0 219.655-83.379 219.655-219.655v-355.483c0-135.828-82.481-219.655-219.655-219.655h-257.758l-151.517-132.689c-37.655-32.726-61.864-45.723-92.346-45.723zM352.586 87.792l140.311 137.622c22.415 22.415 36.31 28.241 67.241 28.241h259.104c74.413 0 111.171 37.655 111.171 111.171v341.587c0 73.517-36.758 110.724-111.171 110.724h-579.173c-74.862 0-111.173-37.207-111.173-110.724v-341.587c0-73.516 36.31-111.171 111.173-111.171h70.828c27.345 0 41.69-11.208 41.69-41.691v-124.172zM438.657 367.517c-21.070-15.24-45.278-1.345-35.865 25.999l36.31 108.484-94.136 67.241c-20.621 14.343-13.896 42.138 13 42.138l116.552-0.448 34.516 108.483c8.517 25.104 35.861 25.104 44.382 0l34.516-108.483 116.104 0.448c27.344 0 32.722-27.346 12.998-42.138l-93.689-67.241 35.861-108.484c9.862-28.241-14.792-41.239-35.413-25.999l-92.344 67.69-92.792-67.69z" />
<glyph unicode="&#xe901;" glyph-name="file-open" d="M568.324 29.223h-384c-46.933 0-85.333 38.4-85.333 85.335v682.666c0 46.933 38.4 85.333 85.333 85.333h341.335l256-256v-256h-85.335v213.333h-213.335v213.333h-298.666v-682.666h384v-85.335zM738.989 43.733v95.571l125.869-125.865 60.16 60.16-125.869 126.295h95.575v85.331h-241.065v-241.491h85.331z" />
<glyph unicode="&#xe902;" glyph-name="upload" d="M480 269.867v395.733l-128-128-45.867 45.867 205.867 205.867 205.867-205.867-45.867-45.867-128 128v-395.733h-64zM234.667 106.667q-25.6 0-44.8 19.2t-19.2 44.8v152.533h64v-152.533h554.667v152.533h64v-152.533q0-25.6-19.2-44.8t-44.8-19.2h-554.667z" />
<glyph unicode="&#xe903;" glyph-name="logout" d="M192 64q-25.6 0-44.8 19.2t-19.2 44.8v640q0 25.6 19.2 44.8t44.8 19.2h318.933v-64h-318.933v-640h318.933v-64h-318.933zM710.4 261.333l-45.867 45.867 108.8 108.8h-389.333v64h387.2l-108.8 108.8 45.867 45.867 187.733-187.733-185.6-185.6z" />
<glyph unicode="&#xe904;" glyph-name="delete-sweep" d="M640 181.333v64h154.667v-64h-154.667zM640 573.867v64h298.667v-64h-298.667zM640 377.6v64h250.667v-64h-250.667zM133.333 656h-48v64h181.333v48h144v-48h181.333v-64h-48v-442.667q0-25.6-19.2-44.8t-44.8-19.2h-282.667q-25.6 0-44.8 19.2t-19.2 44.8v442.667zM197.333 656v-442.667h282.667v442.667h-282.667zM197.333 656v0z" />
<glyph unicode="&#xe905;" glyph-name="mail" d="M149.333 106.667q-25.6 0-44.8 19.2t-19.2 44.8v554.667q0 25.6 19.2 44.8t44.8 19.2h725.333q25.6 0 44.8-19.2t19.2-44.8v-554.667q0-25.6-19.2-44.8t-44.8-19.2h-725.333zM512 428.8l-362.667 237.867v-496h725.333v496l-362.667-237.867zM512 492.8l358.4 232.533h-715.733l357.333-232.533zM149.333 666.667v0z" />
<glyph unicode="&#xe906;" glyph-name="slider-vertical" horiz-adv-x="1009" d="M0.055 319.724c0-72.798 59.561-132.354 132.357-132.354s132.908 59.556 132.908 132.354c0 72.798-60.112 132.357-132.908 132.357s-132.357-59.559-132.357-132.357zM67.888 319.724c0 36.396 28.677 64.525 65.076 64.525s64.523-28.129 64.523-64.525c0-36.396-28.125-64.525-64.523-64.525s-65.076 28.129-65.076 64.525zM132.964 960c-24.817 0-44.671-19.853-44.671-44.67v-507.919h88.79v507.919c0 24.817-19.302 44.67-44.119 44.67zM132.964-10.616c24.817 0 44.119 19.856 44.119 42.467v191.915h-88.79v-191.915c0-22.611 19.853-42.467 44.671-42.467zM371.757 638.483c0-72.796 60.112-132.357 132.908-132.357s132.357 59.561 132.357 132.357-59.561 132.357-132.357 132.357c-72.797 0-132.908-59.561-132.908-132.357zM440.141 638.483c0 35.847 28.677 64.524 64.524 64.524 36.398 0 64.522-28.677 64.522-64.524 0-36.398-28.124-64.524-64.522-64.524-35.847 0-64.524 28.126-64.524 64.524zM504.665 960c-24.817 0-44.119-19.853-44.119-42.464v-184.196h88.789v184.196c0 22.611-19.853 42.464-44.67 42.464zM504.665-10.616c24.817 0 44.67 19.856 44.67 44.67v516.744h-88.789v-516.744c0-24.814 19.302-44.67 44.119-44.67zM744.562 319.724c0-72.798 59.561-132.354 132.354-132.354 72.798 0 132.36 59.556 132.36 132.354s-59.561 132.357-132.36 132.357c-72.793 0-132.354-59.559-132.354-132.357zM812.397 319.724c0 36.396 28.677 64.525 64.52 64.525 36.95 0 64.525-28.129 64.525-64.525s-27.575-64.525-64.525-64.525c-35.843 0-64.52 28.129-64.52 64.525zM876.916 960c-24.814 0-44.67-19.853-44.67-44.67v-510.676h88.791v510.676c0 24.817-19.302 44.67-44.122 44.67zM876.916-10.616c24.82 0 44.122 19.856 44.122 42.467v199.635h-88.791v-199.635c0-22.611 19.856-42.467 44.67-42.467z" />
<glyph unicode="&#xe907;" glyph-name="plus" horiz-adv-x="1023" d="M-0.060 448.124c0-30.403 25.439-55.221 55.221-55.221h401.435v-401.432c0-29.785 24.818-55.224 55.221-55.224s55.841 25.439 55.841 55.224v401.432h400.812c29.785 0 55.224 24.818 55.224 55.221s-25.439 55.841-55.224 55.841h-400.812v400.814c0 29.782-25.439 55.221-55.841 55.221s-55.221-25.439-55.221-55.221v-400.814h-401.435c-29.782 0-55.221-25.439-55.221-55.841z" />
<glyph unicode="&#xe908;" glyph-name="questionmark-circle" d="M511.751-63.6c279.986 0 511.8 232.318 511.8 511.8 0 279.984-232.318 511.799-512.302 511.799-279.482 0-511.297-231.815-511.297-511.799 0-279.483 232.317-511.8 511.799-511.8zM511.751 21.702c-236.833 0-425.998 189.666-425.998 426.498s188.664 426.499 425.496 426.499c236.83 0 427-189.666 427-426.499s-189.666-426.498-426.498-426.498zM501.214 344.337c25.086 0 40.644 16.056 40.644 35.622 0 2.009 0 4.516 0 6.022 0 28.1 16.056 46.166 51.18 69.245 48.668 32.113 83.293 61.215 83.293 121.427 0 83.293-74.26 128.452-159.563 128.452-86.304 0-143.003-41.145-156.551-87.307-2.509-8.028-4.014-16.056-4.014-24.586 0-22.579 17.562-34.622 34.12-34.622 17.060 0 28.099 8.028 37.13 20.070l9.032 12.043c17.562 29.103 43.654 46.162 77.272 46.162 45.662 0 75.262-26.092 75.262-64.226 0-34.12-21.071-50.678-64.724-81.286-36.128-25.089-63.223-51.684-63.223-100.856 0-2.004 0-4.516 0-6.52 0-26.096 14.551-39.64 40.141-39.64zM500.21 194.809c29.1 0 54.19 23.080 54.19 52.182 0 29.107-24.586 52.187-54.19 52.187s-54.191-23.584-54.191-52.187c0-28.598 25.088-52.182 54.191-52.182z" />
<glyph unicode="&#xe909;" glyph-name="verified" d="M981.333 448.427l-104.107 119.040 14.507 157.44-154.027 34.987-80.64 136.107-145.067-62.293-145.067 62.293-80.64-136.107-154.027-34.56 14.507-157.867-104.107-119.040 104.107-119.040-14.507-157.867 154.027-34.987 80.64-136.533 145.067 62.72 145.067-62.293 80.64 136.107 154.027 34.987-14.507 157.44 104.107 119.467zM812.8 385.28l-23.893-27.733 3.413-36.267 7.68-83.2-116.907-26.453-18.773-31.573-42.24-71.68-75.947 32.853-34.133 14.507-33.707-14.507-75.947-32.853-42.24 71.253-18.773 31.573-116.907 26.453 7.68 83.627 3.413 36.267-23.893 27.733-55.040 62.72 55.040 63.147 23.893 27.733-3.84 36.693-7.68 82.773 116.907 26.453 18.773 31.573 42.24 71.68 75.947-32.853 34.133-14.507 33.707 14.507 75.947 32.853 42.24-71.68 18.773-31.573 116.907-26.453-7.68-83.2-3.413-36.267 23.893-27.733 55.040-62.72-54.613-63.147zM430.507 373.333l-98.987 99.413-63.147-63.573 162.133-162.56 313.173 314.027-63.147 63.573-250.027-250.88z" />
<glyph unicode="&#xe90a;" glyph-name="search" d="M672.213 351.791h-33.707l-11.947 11.52c41.813 48.64 66.987 111.787 66.987 180.481 0 153.173-124.16 277.333-277.333 277.333s-277.333-124.16-277.333-277.333c0-153.174 124.16-277.334 277.333-277.334 68.693 0 131.84 25.173 180.48 66.987l11.52-11.947v-33.707l213.333-212.907 63.573 63.573-212.907 213.333zM416.213 351.791c-106.24 0-192 85.76-192 192.001s85.76 192 192 192c106.24 0 192-85.76 192-192s-85.76-192.001-192-192.001z" />
<glyph unicode="&#xe90b;" glyph-name="phone" d="M279.040 746.667c2.56-37.973 8.96-75.093 19.2-110.507l-51.2-51.2c-17.493 51.2-28.587 105.387-32.427 161.707h64.427zM699.733 233.813c36.267-10.24 73.387-16.64 110.933-19.2v-63.573c-56.32 3.84-110.507 14.933-162.133 32l51.2 50.773zM320 832h-149.333c-23.467 0-42.667-19.2-42.667-42.667 0-400.64 324.693-725.333 725.333-725.333 23.467 0 42.667 19.2 42.667 42.667v148.907c0 23.467-19.2 42.667-42.667 42.667-52.907 0-104.533 8.533-152.32 24.32-4.267 1.707-8.96 2.133-13.227 2.133-11.093 0-21.76-4.267-30.293-12.373l-93.867-93.867c-120.747 61.867-219.733 160.427-281.173 281.173l93.867 93.867c11.947 11.947 15.36 28.587 10.667 43.52-15.787 47.787-24.32 98.987-24.32 152.32 0 23.467-19.2 42.667-42.667 42.667z" />
<glyph unicode="&#xe90c;" glyph-name="laptop-window" d="M853.331 170.656v42.669c46.938 0 84.909 38.4 84.909 85.331l0.429 426.667c0 46.933-38.4 85.333-85.338 85.333h-682.664c-46.934 0-85.334-38.4-85.334-85.333v-426.667c0-46.931 38.4-85.331 85.334-85.331v-42.669h-170.667v-85.331h1024v85.331h-170.669zM170.667 725.323h682.664v-426.667h-682.664v426.667z" />
<glyph unicode="&#xe90d;" glyph-name="how-to-vote" d="M768 405.308h-29.013l-85.333-85.333h81.493l75.52-85.333h-597.333l75.947 85.333h87.467l-85.333 85.333h-35.413l-128-128v-170.667c0-46.933 37.973-85.333 84.907-85.333h597.76c46.933 0 85.333 37.973 85.333 85.333v170.667l-128 128zM810.667 106.641h-597.333v42.667h597.333v-42.667zM483.84 319.121c16.64-16.64 43.52-16.64 60.16 0l271.36 271.359c16.64 16.64 16.64 43.52 0 60.16l-211.2 211.2c-16.213 17.067-43.093 17.067-59.733 0.427l-271.787-271.787c-16.64-16.64-16.64-43.52 0-60.159l211.2-211.2zM574.293 771.814l151.040-151.040-211.2-211.199-151.040 151.039 211.2 211.2z" />
<glyph unicode="&#xe90e;" glyph-name="google-drive" d="M789.331 490.667c7.258 0 14.080-0.427 20.909-0.854l-191.573 342.187h-256l242.346-419.84c46.507 48.213 111.787 78.507 184.318 78.507zM326.4 767.147l-262.4-468.478 128-234.669 270.080 468.053-135.68 235.094zM541.867 298.669h-140.8l-135.254-234.669h333.227c-40.96 45.229-65.707 104.96-65.707 170.669 0 22.182 2.987 43.52 8.534 64zM832 277.331v128.002h-85.331v-128.002h-128.002v-85.331h128.002v-128h85.331v128h128v85.331h-128z" />
<glyph unicode="&#xe90f;" glyph-name="filter" d="M298.883 704h426.668l-213.76-268.8-212.908 268.8zM181.549 720.64c86.187-110.507 245.335-315.307 245.335-315.307v-256c0-23.467 19.2-42.667 42.667-42.667h85.333c23.467 0 42.667 19.2 42.667 42.667v256c0 0 158.72 204.8 244.907 315.307 21.76 28.16 1.707 68.693-33.707 68.693h-593.495c-35.413 0-55.467-40.533-33.707-68.693z" />
<glyph unicode="&#xe910;" glyph-name="file-upload" d="M768 320v-128h-512v128h-85.333v-128c0-46.933 38.4-85.333 85.333-85.333h512c46.933 0 85.333 38.4 85.333 85.333v128h-85.333zM298.667 576l60.16-60.16 110.507 110.080v-348.587h85.333v348.587l110.507-110.080 60.16 60.16-213.333 213.333-213.333-213.333z" />
<glyph unicode="&#xe911;" glyph-name="drop-box" d="M825.6 531.637c-29.011 147.2-158.291 257.707-313.6 257.707-123.307 0-230.4-69.974-283.733-172.374-128.427-13.653-228.267-122.453-228.267-254.293 0-141.224 114.773-256.002 256-256.002h554.669c117.76 0 213.331 95.578 213.331 213.335 0 112.64-87.469 203.947-198.4 211.627zM597.333 405.344v-170.669h-170.666v170.669h-128l213.333 213.333 213.331-213.333h-127.998z" />
<glyph unicode="&#xe912;" glyph-name="download" d="M782.737 778.24c-63.147 51.627-141.227 85.76-226.987 94.293v-86.187c62.293-7.68 119.040-32.427 166.4-69.12l60.587 61.013zM851.43 490.667h86.187c-8.533 85.76-42.667 163.84-94.293 226.987l-61.013-60.587c36.693-47.36 61.44-104.107 69.12-166.4zM782.31 238.933l61.013-61.013c51.627 63.147 85.76 141.653 94.293 226.987h-86.187c-7.68-61.867-32.427-118.613-69.12-165.973zM555.75 109.653v-86.187c85.76 8.533 163.84 42.667 226.987 94.293l-61.013 61.013c-46.933-36.693-103.68-61.44-165.973-69.12zM666.257 508.16l-110.507-110.080v263.254h-85.333v-263.254l-110.507 110.507-60.16-60.587 213.334-213.333 213.333 213.333-60.16 60.16zM470.417 109.653v-86.187c-215.467 21.333-384 203.093-384 424.533s168.533 403.2 384 424.534v-86.187c-168.534-20.907-298.667-164.267-298.667-338.347s130.133-317.44 298.667-338.347z" />
<glyph unicode="&#xe913;" glyph-name="android-mobile" d="M682.667 917.333h-341.333c-70.827 0-128-57.173-128-128v-682.667c0-70.827 57.173-128 128-128h341.333c70.827 0 128 57.173 128 128v682.667c0 70.827-57.173 128-128 128zM725.333 192h-426.667v597.333h426.667v-597.333zM597.333 64h-170.667v42.667h170.667v-42.667z" />
<glyph unicode="&#xe914;" glyph-name="checkmark" d="M511.751-63.6c279.986 0 511.8 232.318 511.8 511.8 0 279.984-232.318 511.799-512.302 511.799-279.482 0-511.297-231.815-511.297-511.799 0-279.483 232.317-511.8 511.799-511.8zM511.751 21.702c-236.833 0-425.998 189.666-425.998 426.498s188.664 426.499 425.496 426.499c236.83 0 427-189.666 427-426.499s-189.666-426.498-426.498-426.498zM456.557 209.863c16.558 0 30.607 8.026 40.643 23.584l229.305 360.767c5.518 10.035 12.044 21.074 12.044 32.113 0 22.579-20.069 37.131-41.146 37.131-12.542 0-25.089-8.028-34.62-22.58l-208.232-334.172-98.848 127.948c-12.043 16.056-23.081 20.070-37.131 20.070-21.576 0-38.636-17.563-38.636-39.641 0-11.037 4.516-21.575 11.541-31.106l122.43-150.53c12.544-16.56 26.092-23.584 42.65-23.584z" />
<glyph unicode="&#xe915;" glyph-name="lock-rotation" horiz-adv-x="1121" d="M0 448.201c0-279.459 232.296-511.756 511.755-511.756 169.082 0 319.095 85.793 413.92 214.234 17.057 22.076 11.539 49.67-8.528 62.217-21.075 12.541-45.155 6.021-60.208-14.55-77.265-106.364-202.196-176.107-345.184-176.606-236.812-0.503-426.462 189.65-426.462 426.461s189.65 425.961 426.462 425.961c203.699 0 372.275-139.479 415.426-329.129h-72.25c-35.619 0-44.651-24.585-25.585-52.179l112.385-160.047c16.055-22.58 40.135-23.078 56.694 0l111.882 159.546c20.073 28.096 10.537 52.681-25.087 52.681h-71.243c-45.653 234.805-255.376 414.923-502.221 414.923-279.459 0-511.755-231.795-511.755-511.755zM330.132 250.019c0-37.628 16.557-55.188 51.176-55.188h259.893c34.617 0 51.176 17.56 51.176 55.188v199.687c0 35.12-14.55 52.681-44.153 54.687v59.203c0 92.316-55.188 154.53-136.97 154.53-81.78 0-136.969-62.213-136.969-154.53v-59.203c-29.602-2.007-44.152-19.567-44.152-54.687zM426.462 504.895v64.22c0 59.203 34.117 98.337 84.791 98.337s84.793-39.134 84.793-98.337v-64.22z" />
<glyph unicode="&#xe916;" glyph-name="bell" horiz-adv-x="935" d="M0.013 175.547c0-36.175 27.751-59.959 74.828-59.959h209.121c3.965-95.642 78.792-179.391 183.353-179.391 105.057 0 179.884 83.251 183.847 179.391h209.121c46.583 0 74.827 23.784 74.827 59.959 0 49.557-50.546 94.156-93.161 138.257-32.705 34.196-41.625 104.563-45.588 161.55-3.471 195.246-54.017 321.115-185.835 368.687-16.847 64.917-69.87 115.958-143.211 115.958-72.845 0-126.364-51.041-142.718-115.958-131.815-47.573-182.362-173.441-185.83-368.687-3.965-56.987-12.884-127.353-45.591-161.55-43.113-44.102-93.163-88.701-93.163-138.257zM96.149 190.415v5.947c8.92 14.371 38.653 43.604 64.421 72.351 35.68 39.641 52.528 103.569 56.988 200.199 3.964 216.554 68.386 285.436 153.124 308.726 12.389 2.973 19.326 8.92 19.822 21.804 1.487 51.537 31.22 87.712 76.81 87.712 46.087 0 75.326-36.175 77.305-87.712 0.497-12.884 6.937-18.831 19.328-21.804 85.235-23.291 149.654-92.172 153.618-308.726 4.46-96.63 21.307-160.558 56.493-200.199 26.265-28.747 55.504-57.98 64.42-72.351v-5.947zM361.268 115.588h212.59c-3.963-67.398-46.583-109.516-106.543-109.516-59.465 0-102.578 42.118-106.047 109.516z" />
<glyph unicode="&#xe917;" glyph-name="pencil" horiz-adv-x="1007" d="M172.475-6.855l690.3 689.671-110.728 111.359-690.932-690.302-60.109-140.467c-5.695-15.181 10.124-32.901 25.309-26.571zM918.457 737.229l63.903 62.64c32.272 32.269 33.536 67.069 5.060 96.174l-21.511 21.513c-28.469 28.473-63.268 25.309-95.541-5.695l-63.903-63.273z" />
<glyph unicode="&#xe918;" glyph-name="lifepreserver" d="M511.751 179.759c148.020 0 268.441 120.421 268.441 268.441s-120.421 268.444-268.441 268.444c-148.020 0-268.444-120.423-268.444-268.444s120.423-268.441 268.444-268.441zM511.751 264.553c-101.357 0-183.646 82.291-183.646 183.648s82.289 183.646 183.646 183.646c101.357 0 183.648-82.289 183.648-183.646s-82.291-183.648-183.648-183.648zM111.845 152.661l107.879-107.879 199.201 199.203-107.879 107.879zM106.827 744.241l204.218-204.218 107.879 107.879-204.218 204.218zM917.676 743.238l-107.879 107.879-203.216-203.215 107.879-107.879zM913.16 153.663l-198.196 198.201-108.382-108.382 198.201-198.196zM511.751-63.6c279.986 0 511.8 232.318 511.8 511.8 0 279.984-232.318 511.799-512.302 511.799-279.482 0-511.297-231.815-511.297-511.799 0-279.483 232.317-511.8 511.799-511.8zM511.751 21.702c-236.833 0-425.998 189.666-425.998 426.498s188.664 426.499 425.496 426.499c236.83 0 427-189.666 427-426.499s-189.666-426.498-426.498-426.498z" />
<glyph unicode="&#xe919;" glyph-name="exclamationmark" d="M136.501-15.752h775c85.002 0 136.505 59.003 136.505 135.501 0 23.501-7.004 48-19.502 70.001l-388 676.001c-25.999 45.5-70.503 68.5-116.501 68.5-46.001 0-91.002-23-116.502-68.5l-388.001-676.001c-13.5-22.502-19.5-46.5-19.5-70.001 0-76.498 51.5-135.501 136.501-135.501zM524.499 318.252c-25.998 0-40.498 14.997-40.998 41.498l-6.5 272.001c-0.5 26.5 19 45.5 47.001 45.5 26.998 0 48-19.5 47.498-46l-7.501-271.5c-0.497-26.998-14.997-41.498-39.501-41.498zM524.499 150.751c-29.998 0-55.998 23.997-55.998 53.499 0 29.998 25.5 54.001 55.998 54.001 30.003 0 55.501-23.501 55.501-54.001 0-30.003-25.999-53.499-55.501-53.499z" />
<glyph unicode="&#xe91a;" glyph-name="phonelink-erase" d="M612.267 284.8l-44.8 44.8 119.467 119.467-119.467 119.467 44.8 44.8 119.467-119.467 119.467 119.467 44.8-44.8-119.467-119.467 119.467-119.467-44.8-44.8-119.467 119.467-119.467-119.467zM234.667-21.333q-26.4 0-45.2 18.8t-18.8 45.2v810.667q0 26.4 18.8 45.2t45.2 18.8h469.333q26.4 0 45.2-18.8t18.8-45.2v-155.733h-64v59.733h-469.333v-618.667h469.333v59.733h64v-155.733q0-26.4-18.8-45.2t-45.2-18.8h-469.333zM234.667 74.667v-32h469.333v32h-469.333zM234.667 821.333h469.333v32h-469.333v-32zM234.667 821.333v0zM234.667 74.667v0z" />
<glyph unicode="&#xe91b;" glyph-name="flipphone" horiz-adv-x="695" d="M347.94-64.102c214.16 0 347.329 123.231 347.329 337.393v407.95c0 79.006-52.174 129.193-135.153 129.193h-480.002v108.82c0 21.863-17.889 40.248-40.249 40.248-21.863 0-39.752-18.385-39.752-40.248v-645.963c0-214.162 133.168-337.393 347.826-337.393zM347.94 13.91c-163.478 0-267.826 92.921-267.826 253.916v462.608h469.566c41.738 0 65.587-22.857 65.587-62.112v-400.496c0-160.996-103.85-253.916-267.327-253.916zM173.53 345.341h348.323c27.329 0 43.728 16.399 43.728 42.736v249.439c0 26.832-16.399 43.23-43.728 43.23h-348.323c-26.832 0-43.726-16.398-43.726-43.23v-249.439c0-26.337 16.894-42.736 43.726-42.736zM277.381 99.377h138.136c18.882 0 33.789 14.908 33.789 33.791s-14.906 33.791-33.789 33.791h-138.136c-18.385 0-33.789-14.908-33.789-33.791s15.404-33.791 33.789-33.791z" />
<glyph unicode="&#xe91c;" glyph-name="pencil-outline" horiz-adv-x="973" d="M182.769 140.242c130.786-130.787 300.759-169.978 384.329-178.004 24.551-2.833 38.243 12.276 40.134 27.858 1.89 16.525-8.5 34.467-32.108 37.774-75.544 10.385-231.352 44.379-345.14 159.114-185.083 185.556-220.022 466.011-68.934 617.099 122.759 122.287 327.202 106.706 477.816 25.496l49.102 47.687c-183.191 110.011-429.656 118.982-574.134-25.968-171.863-172.335-149.2-492.925 68.934-711.057zM354.632 281.414c154.395-154.395 402.745-215.299 541.558-76.961 113.314 113.788 98.679 315.869-22.666 489.62l-48.16-48.159c96.319-142.59 115.204-302.648 23.608-394.244-111.428-111.428-295.567-58.55-422.102 60.904zM416.484 351.765l423.99 423.518-70.351 69.878-423.517-423.044-38.716-90.184c-4.249-9.916 5.666-20.301 16.053-16.525zM874.941 809.277l37.774 37.772c17.942 17.942 18.885 44.382 0.469 61.38l-12.276 11.332c-16.052 15.109-41.546 15.109-58.545-1.889l-37.301-38.244z" />
<glyph unicode="&#xe91d;" glyph-name="square-grid" horiz-adv-x="1023" d="M106.047 493.131h253.444c70.586 0 106.157 35.571 106.157 108.936v248.441c0 73.365-35.571 108.38-106.157 108.38h-253.444c-70.586 0-106.157-35.015-106.157-108.38v-248.441c0-73.365 35.571-108.936 106.157-108.936zM107.159 571.498c-19.453 0-28.902 10.004-28.902 30.569v248.441c0 20.009 9.449 30.013 28.902 30.013h250.664c19.453 0 29.457-10.005 29.457-30.013v-248.441c0-20.565-10.004-30.569-29.457-30.569zM664.066 493.131h252.89c70.584 0 106.155 35.571 106.155 108.936v248.441c0 73.365-35.571 108.38-106.155 108.38h-252.89c-71.142 0-106.712-35.015-106.712-108.38v-248.441c0-73.365 35.57-108.936 106.712-108.936zM665.181 571.498c-20.011 0-29.458 10.004-29.458 30.569v248.441c0 20.009 9.448 30.013 29.458 30.013h250.665c19.447 0 28.901-10.005 28.901-30.013v-248.441c0-20.565-9.453-30.569-28.901-30.569zM106.047-64.331h253.444c70.586 0 106.157 35.013 106.157 108.375v248.997c0 72.81-35.571 108.383-106.157 108.383h-253.444c-70.586 0-106.157-35.574-106.157-108.383v-248.997c0-73.362 35.571-108.375 106.157-108.375zM107.159 14.034c-19.453 0-28.902 10.005-28.902 30.011v248.445c0 20.563 9.449 30.568 28.902 30.568h250.664c19.453 0 29.457-10.005 29.457-30.568v-248.445c0-20.005-10.004-30.011-29.457-30.011zM664.066-64.331h252.89c70.584 0 106.155 35.013 106.155 108.375v248.997c0 72.81-35.571 108.383-106.155 108.383h-252.89c-71.142 0-106.712-35.574-106.712-108.383v-248.997c0-73.362 35.57-108.375 106.712-108.375zM665.181 14.034c-20.011 0-29.458 10.005-29.458 30.011v248.445c0 20.563 9.448 30.568 29.458 30.568h250.665c19.447 0 28.901-10.005 28.901-30.568v-248.445c0-20.005-9.453-30.011-28.901-30.011z" />
<glyph unicode="&#xe91e;" glyph-name="house" horiz-adv-x="1077" d="M408.438 58.584h260.41v328.557c0 20.76-13.541 34.3-34.3 34.3h-191.358c-21.212 0-34.751-13.541-34.751-34.3zM231.975 12.097h610.625c64.086 0 101.547 36.56 101.547 99.74v498.703l-72.663 49.644v-529.843c0-29.332-15.796-45.581-44.227-45.581h-579.938c-28.884 0-44.68 16.249-44.68 45.581v529.392l-72.662-49.193v-498.703c0-63.18 37.459-99.74 101.997-99.74zM0 514.411c0-18.504 14.442-36.107 38.813-36.107 12.637 0 23.017 6.77 32.495 14.442l451.766 379.104c9.927 9.026 22.114 9.026 32.040 0l451.765-379.104c9.026-7.672 19.405-14.442 32.045-14.442 21.212 0 38.358 13.088 38.358 34.753 0 13.539-4.511 22.566-13.989 30.689l-469.816 394.899c-33.399 28.433-74.918 28.433-108.766 0l-470.269-394.899c-9.929-8.124-14.442-18.955-14.442-29.335zM830.866 717.953l113.281-95.678v208.507c0 19.858-12.64 32.494-32.493 32.494h-48.294c-19.405 0-32.493-12.636-32.493-32.494z" />
<glyph unicode="&#xe91f;" glyph-name="play-circle" d="M511.751-63.6c279.986 0 511.8 232.318 511.8 511.8 0 279.984-232.318 511.799-512.302 511.799-279.482 0-511.297-231.815-511.297-511.799 0-279.483 232.317-511.8 511.799-511.8zM511.751 21.702c-236.833 0-425.998 189.666-425.998 426.498s188.664 426.499 425.496 426.499c236.83 0 427-189.666 427-426.499s-189.666-426.498-426.498-426.498zM417.921 252.011l285.503 169.094c21.076 12.044 20.573 41.146 0 53.69l-285.503 169.095c-21.576 12.544-50.177 3.010-50.177-21.576v-348.727c0-24.082 26.594-35.622 50.177-21.575z" />
<glyph unicode="&#xe920;" glyph-name="globe" d="M511.751-35.5c139.491 0 253.392 206.226 253.392 482.697 0 277.977-113.402 484.202-253.392 484.202-139.992 0-253.391-206.225-253.391-484.202 0-276.47 113.9-482.697 253.391-482.697zM511.751 870.686c98.346 0 186.155-195.688 186.155-423.489 0-223.785-87.81-421.482-186.155-421.482s-186.155 197.697-186.155 421.482c0 227.801 87.809 423.489 186.155 423.489zM479.136 924.375v-950.343h65.733v950.343zM511.751 259.538c-154.544 0-291.525-40.642-361.772-105.371l50.678-41.644c66.233 52.681 174.112 81.284 311.094 81.284 136.984 0 244.863-28.604 311.092-81.284l50.682 41.644c-70.248 64.729-207.228 105.371-361.774 105.371zM974.879 481.317h-926.256v-65.731h926.256zM511.751 634.355c154.546 0 291.527 40.643 361.774 105.37l-50.682 41.647c-66.23-52.184-174.108-81.286-311.092-81.286-136.982 0-244.861 29.102-311.094 81.286l-50.678-41.647c70.247-64.728 207.228-105.37 361.772-105.37zM511.751-63.6c279.986 0 511.8 232.318 511.8 511.8 0 279.984-232.318 511.799-512.302 511.799-279.482 0-511.297-231.815-511.297-511.799 0-279.483 232.317-511.8 511.799-511.8zM511.751 4.639c-242.352 0-443.56 201.212-443.56 443.562 0 242.352 200.706 443.56 443.058 443.56 242.354 0 444.064-201.208 444.064-443.56 0-242.35-201.212-443.562-443.562-443.562z" />
<glyph unicode="&#xe921;" glyph-name="lock-shield" d="M518.001-76.596c8.001 0 21.002 3.001 33.503 10 284.528 159.513 382.038 227.022 382.038 409.536v382.537c0 52.505-22.505 69.007-65.010 87.008-59.003 24.503-249.521 93.009-308.527 113.511-13.501 4.5-28.003 7.501-42.004 7.501s-28.503-4-41.504-7.501c-59.006-17.002-250.023-89.509-309.029-113.511-42.004-17.502-65.006-34.503-65.006-87.008v-382.537c0-182.515 98.009-249.521 382.036-409.536 13.001-7 25.502-10 33.503-10zM518.001 13.909c-8.001 0-16.002 3.001-31.002 12.002-231.022 140.015-305.029 181.019-305.029 335.53v348.535c0 17.002 3.001 23.502 17.002 29.002 76.007 30.003 223.521 79.508 299.028 109.511 8.001 3.5 14.501 4.5 20.002 4.5s12.001-1.5 20.002-4.5c75.507-30.003 222.021-83.008 299.53-109.511 13.498-5 16.498-12.001 16.498-29.002v-348.535c0-154.511-74.006-195.014-305.027-335.53-14.501-9.002-23.002-12.002-31.003-12.002zM337.484 255.432c0-37.502 16.502-55.004 51.005-55.004h259.023c34.507 0 51.005 17.502 51.005 55.004v199.020c0 35.004-14.501 52.505-44.005 54.506v59.005c0 92.008-55.003 153.515-136.511 153.515s-136.513-61.506-136.513-153.515v-59.005c-29.503-2.001-44.004-19.502-44.004-54.506zM433.493 509.457v64.006c0 59.006 34.004 97.509 84.508 97.509s84.508-38.503 84.508-97.509v-64.006z" />
<glyph unicode="&#xe922;" glyph-name="doc-badge" d="M252.74 411.159c10.801 1.2 21.202 1.999 31.603 1.999 10.801 0 21.201-0.799 32.802-1.999v346.825c0 39.603 21.202 62.405 62.805 62.405h178.014v-232.418c0-50.404 25.201-75.207 75.204-75.207h228.017v-359.227c0-40.005-21.198-62.006-62.805-62.006h-264.417c-5.202-22.8-14.001-44.801-25.602-64.402h293.223c82.803 0 124.008 42.004 124.008 125.208v363.229c0 51.604-6.001 74.005-38.002 106.808l-220.419 224.418c-30.403 31.202-55.603 38.003-100.409 38.003h-190.013c-82.406 0-124.010-42.403-124.010-125.61zM618.369 595.572v212.416l230.418-234.818h-208.417c-16 0-22.001 6.4-22.001 22.402zM285.143-48.477c110.008 0 203.216 92.405 203.216 203.214 0 111.608-91.607 203.214-203.216 203.214s-203.216-91.606-203.216-203.214c0-111.608 91.607-203.214 203.216-203.214zM285.543 283.948c6.801 0 12.001-3.199 18.802-9.2l103.608-96.407c6.4-5.202 8.801-11.203 8.801-18.802 0-13.6-10.401-24.402-24.402-23.603-6.8 0.401-13.201 3.199-18.001 8l-38.403 38.403-26.002 27.204 2-51.204v-106.009c0-14.001-12.001-25.602-26.402-25.602s-26.402 11.601-26.402 25.602v106.009l2 51.204-26.402-27.204-37.603-38.403c-5.2-4.801-12.001-8.402-18.801-8-13.601 0-25.202 10.003-24.402 23.603 0.4 7.599 3.2 13.6 9.201 18.802l103.208 96.407c7.201 6.398 12.801 9.2 19.201 9.2z" />
<glyph unicode="&#xe923;" glyph-name="arrow-left" d="M0 453.499c0-13.89 6.112-26.67 17.224-37.226l368.929-368.371c11.112-10.56 22.78-15.561 36.115-15.561 27.225 0 48.894 20.004 48.894 47.786 0 13.331-5.001 26.667-13.89 35.002l-124.458 126.683-220.024 200.575-11.668-27.225 178.909-11.112h702.855c28.891 0 48.896 20.557 48.896 49.45s-20.004 49.45-48.896 49.45h-702.855l-178.909-11.113 11.668-27.781 220.024 201.133 124.458 126.68c8.89 8.89 13.89 21.669 13.89 35.004 0 27.781-21.669 47.783-48.894 47.783-13.335 0-25.003-4.445-37.226-16.669l-367.818-367.263c-11.112-10.556-17.224-23.336-17.224-37.226z" />
<glyph unicode="&#xe924;" glyph-name="arrow-right" d="M1031.782 453.499c0 13.89-5.559 26.67-16.67 37.226l-368.373 367.263c-12.227 12.224-23.89 16.669-37.226 16.669-27.224 0-48.339-20.002-48.339-47.783 0-13.335 4.445-26.114 13.337-35.004l124.458-126.68 220.577-201.133 11.112 27.781-178.907 11.113h-702.855c-28.892 0-48.894-20.558-48.894-49.45s20.002-49.45 48.894-49.45h702.855l178.907 11.112-11.112 27.225-220.577-200.575-124.458-126.683c-8.892-8.335-13.337-21.671-13.337-35.002 0-27.782 21.115-47.786 48.339-47.786 13.336 0 25 5.001 36.117 15.561l369.483 368.371c11.112 10.557 16.67 23.336 16.67 37.226z" />
<glyph unicode="&#xe925;" glyph-name="arrow-up" d="M506.445-89.559c28.892 0 49.45 20.004 49.45 48.896v731.746l-5.556 165.573-31.67-11.112 199.463-218.357 126.682-124.458c8.893-8.89 21.671-13.334 35.002-13.334 27.782 0 47.786 21.113 47.786 48.338 0 13.335-4.444 25.003-15.003 36.115l-368.928 369.484c-10.557 11.112-23.336 16.668-37.226 16.668s-26.67-5.556-37.226-16.668l-368.373-369.484c-10.557-11.112-15.557-22.78-15.557-36.115 0-27.225 20.002-48.338 47.783-48.338 13.335 0 26.669 4.445 35.004 13.334l126.68 124.458 198.91 218.357-31.114 11.112-5.556-165.573v-731.746c0-28.891 20.558-48.896 49.45-48.896z" />
<glyph unicode="&#xe926;" glyph-name="arrow-down" d="M506.445 960c-28.892 0-49.45-20.002-49.45-48.894v-731.745l5.556-165.576 31.114 11.117-198.91 218.352-126.68 124.458c-8.335 8.893-21.669 13.336-35.004 13.336-27.781 0-47.783-21.114-47.783-48.338 0-13.336 5.001-25 15.557-36.117l368.373-369.482c10.556-11.112 23.335-16.67 37.226-16.67s26.67 5.559 37.226 16.67l368.928 369.482c10.56 11.117 15.003 22.781 15.003 36.117 0 27.224-20.004 48.338-47.786 48.338-13.331 0-26.109-4.444-35.002-13.336l-126.682-124.458-199.463-218.352 31.67-11.117 5.556 165.576v731.745c0 28.892-20.557 48.894-49.45 48.894z" />
<glyph unicode="&#xe927;" glyph-name="explore" d="M280.533 216.533l309.333 152.533 152.533 309.333-309.333-152.533-152.533-309.333zM512 405.333q-18.133 0-30.4 12.267t-12.267 30.4 12.267 30.4 30.4 12.267 30.4-12.267 12.267-30.4-12.267-30.4-30.4-12.267zM512 21.333q-87.467 0-165.333 33.6t-136 91.733-91.733 136-33.6 165.333q0 88.533 33.6 166.4t91.733 135.467 136 91.2 165.333 33.6q88.533 0 166.4-33.6t135.467-91.2 91.2-135.467 33.6-166.4q0-87.467-33.6-165.333t-91.2-136-135.467-91.733-166.4-33.6zM512 85.333q151.467 0 257.067 106.133t105.6 256.533q0 151.467-105.6 257.067t-257.067 105.6q-150.4 0-256.533-105.6t-106.133-257.067q0-150.4 106.133-256.533t256.533-106.133z" />
<glyph unicode="&#xe928;" glyph-name="my-location" d="M480-19.2v80q-146.133 14.933-243.2 112t-112 243.2h-80v64h80q14.933 146.133 112 243.2t243.2 112v80h64v-80q146.133-14.933 243.2-112t112-243.2h80v-64h-80q-14.933-146.133-112-243.2t-243.2-112v-80h-64zM512 123.733q133.333 0 228.8 95.467t95.467 228.8-95.467 228.8-228.8 95.467-228.8-95.467-95.467-228.8 95.467-228.8 228.8-95.467zM512 288q-67.2 0-113.6 46.4t-46.4 113.6 46.4 113.6 113.6 46.4 113.6-46.4 46.4-113.6-46.4-113.6-113.6-46.4zM512 352q40.533 0 68.267 27.733t27.733 68.267-27.733 68.267-68.267 27.733-68.267-27.733-27.733-68.267 27.733-68.267 68.267-27.733z" />
<glyph unicode="&#xe929;" glyph-name="menu-book" d="M597.333 548.267v51.2q35.2 14.933 72 22.4t77.333 7.467q27.733 0 54.4-4.267t52.267-10.667v-46.933q-25.6 9.6-51.733 14.4t-54.933 4.8q-40.533 0-77.867-10.133t-71.467-28.267zM597.333 313.6v52.267q35.2 14.4 72 21.6t77.333 7.2q27.733 0 54.4-4.267t52.267-10.667v-46.933q-25.6 9.6-51.733 14.4t-54.933 4.8q-40.533 0-77.867-9.6t-71.467-28.8zM597.333 430.933v51.2q35.2 14.933 72 22.4t77.333 7.467q27.733 0 54.4-4.267t52.267-10.667v-46.933q-25.6 9.6-51.733 14.4t-54.933 4.8q-40.533 0-77.867-10.133t-71.467-28.267zM264.533 256q57.137 0 111.235-13.333t106.365-40v455.467q-48 32-104.127 49.6-56.126 17.6-113.473 17.6-40.533 0-79.467-10.133t-78.4-25.067v-462.933q33.067 14.933 75.2 21.867t82.667 6.933zM546.133 202.667q53.333 26.667 104.533 40t108.8 13.333q40.533 0 83.733-6.4t74.133-17.067v457.6q-36.267 18.133-76.61 26.667-40.345 8.533-81.257 8.533-57.6 0-111.467-17.6t-101.867-49.6v-455.467zM514.133 106.667q-54.4 40.533-118.4 62.4t-131.2 21.867q-38.973 0-76.553-9.6-37.581-9.6-74.914-23.467-24.64-11.733-47.52 3.2t-22.88 42.667v493.867q0 16 7.467 29.333t22.4 20.8q44.8 21.333 93.221 31.467t98.779 10.133q67.2 0 130.667-18.133t118.933-55.467q54.4 37.333 116.8 55.467t128.533 18.133q49.993 0 98.063-10.133t92.87-31.467q14.933-7.467 22.933-20.8t8-29.333v-493.867q0-29.754-24-45.277t-47.467-0.59q-36.267 14.933-73.847 24t-76.553 9.067q-67.2 0-129.067-22.4t-116.267-61.867z" />
<glyph unicode="&#xe92a;" glyph-name="slow-motion" d="M177.067 185.6q-40.533 48-63.467 107.2t-27.2 123.2h66.133q5.333-50.133 23.467-97.067t50.133-85.333l-49.067-48zM86.4 501.333q2.133 64 26.133 122.667t64.533 107.733l49.067-48q-30.933-40.533-49.6-86.4t-24-96h-66.133zM470.4 30.933q-62.933 8.533-121.6 29.867t-108.8 58.667l49.067 51.2q40.533-27.733 86.4-47.467t94.933-28.267v-64zM291.2 746.667l-51.2 51.2q51.2 38.4 110.4 59.2t123.2 29.333v-64q-50.133-8.533-96-27.2t-86.4-48.533zM412.8 276.267v364.8l285.867-182.4-285.867-182.4zM558.933 30.933v64q136.533 20.267 226.133 123.2t89.6 240.533-89.6 240.533-226.133 123.2v64q164.267-16 272-139.2t107.733-288.533-107.733-288-272-139.733z" />
<glyph unicode="&#xe92b;" glyph-name="apps" d="M241.067 106.667q-29.867 0-50.133 20.267t-20.267 50.133 20.267 50.133 50.133 20.267 50.133-20.267 20.267-50.133-20.267-50.133-50.133-20.267zM512 106.667q-29.867 0-50.133 20.267t-20.267 50.133 20.267 50.133 50.133 20.267 50.133-20.267 20.267-50.133-20.267-50.133-50.133-20.267zM782.933 106.667q-29.867 0-50.133 20.267t-20.267 50.133 20.267 50.133 50.133 20.267 50.133-20.267 20.267-50.133-20.267-50.133-50.133-20.267zM241.067 377.6q-29.867 0-50.133 20.267t-20.267 50.133 20.267 50.133 50.133 20.267 50.133-20.267 20.267-50.133-20.267-50.133-50.133-20.267zM512 377.6q-29.867 0-50.133 20.267t-20.267 50.133 20.267 50.133 50.133 20.267 50.133-20.267 20.267-50.133-20.267-50.133-50.133-20.267zM782.933 377.6q-29.867 0-50.133 20.267t-20.267 50.133 20.267 50.133 50.133 20.267 50.133-20.267 20.267-50.133-20.267-50.133-50.133-20.267zM241.067 648.533q-29.867 0-50.133 20.267t-20.267 50.133 20.267 50.133 50.133 20.267 50.133-20.267 20.267-50.133-20.267-50.133-50.133-20.267zM512 648.533q-29.867 0-50.133 20.267t-20.267 50.133 20.267 50.133 50.133 20.267 50.133-20.267 20.267-50.133-20.267-50.133-50.133-20.267zM782.933 648.533q-29.867 0-50.133 20.267t-20.267 50.133 20.267 50.133 50.133 20.267 50.133-20.267 20.267-50.133-20.267-50.133-50.133-20.267z" />
<glyph unicode="&#xe92c;" glyph-name="draw" d="M597.333 64q-12.8 0-22.4 9.6t-9.6 22.4q0 13.867 9.6 22.933t22.4 9.067q62.933 0 106.133 25.6t43.2 59.733q0 24.533-31.467 48t-84.8 36.267l50.133 50.133q67.2-20.267 98.667-56t31.467-78.4q0-71.467-65.067-110.4t-148.267-38.933zM256 377.6q-68.267 14.933-98.133 46.933t-29.867 66.133q0 37.333 27.733 67.2t128 66.133q70.4 25.6 90.667 41.6t20.267 37.333q0 26.667-23.467 45.867t-72.533 19.2q-28.8 0-49.067-7.467t-36.267-23.467q-8.533-8.533-21.867-10.133t-24 6.933q-11.733 8.533-12.267 21.333t8 22.4q18.133 23.467 54.4 38.933t81.067 15.467q72.533 0 116.267-34.667t43.733-94.4q0-43.733-30.4-74.133t-118.933-63.467q-71.467-26.667-94.4-42.133t-22.933-32.533 28.8-32.533 86.4-29.333l-51.2-51.2zM785.067 541.867l-136.533 136.533 48 48q19.2 19.2 42.667 19.2t42.667-19.2l51.2-51.2q19.2-19.2 19.2-42.667t-19.2-42.667l-48-48zM234.667 128h44.8l368 368-44.8 44.8-368-368v-44.8zM170.667 64v136.533l432 432 136.533-136.533-432-432h-136.533zM602.667 540.8v0z" />
<glyph unicode="&#xe92d;" glyph-name="lock-person" d="M803.2 201.6q29.778 0 50.622 20.863 20.845 20.863 20.845 50.667t-20.845 50.070-50.622 20.267q-29.333 0-49.867-20.643t-20.533-50.133 20.533-50.29 49.867-20.8zM802.972 59.733q35.428 0 66.362 16.533t50.133 45.333q-27.733 14.933-56.533 24t-59.733 9.067-59.733-9.067-56.533-24q19.2-28.8 49.905-45.333t66.133-16.533zM373.333 612.267h277.333v99.2q0 60.8-40 101.333t-98.667 40.533-98.667-40.533-40-101.333v-99.2zM594.133 21.333h-359.467q-24.533 0-44.267 19.733t-19.733 44.267v462.933q0 24.533 19.733 44.267t44.267 19.733h74.667v99.2q0 86.4 58.667 146.133t144 59.733 144-59.733 58.667-146.133v-99.2h74.667q24.533 0 44.267-19.733t19.733-44.267v-92.8q-13.867 3.2-28.8 4.267t-35.2 1.067v87.467h-554.667v-462.933h321.067q7.467-18.133 16-32.533t22.4-31.467zM803.2-14.933q-84.267 0-145.067 60.8t-60.8 145.067 60.8 145.067 145.067 60.8 145.067-60.8 60.8-145.067-60.8-145.067-145.067-60.8zM234.667 548.267v0z" />
<glyph unicode="&#xe92e;" glyph-name="multiple-documents" horiz-adv-x="841" d="M26.751 98.128v529.376c0 82.775 42.735 126.28 125.125 126.28h65.065v70.84c0 83.16 43.12 126.28 125.125 126.28h145.145c44.273 0 78.541-11.165 107.414-40.81l192.117-195.58c30.413-31.185 40.81-63.525 40.81-113.96v-304.918c0-83.163-42.737-126.281-125.125-126.281h-65.452v-71.227c0-82.776-42.35-126.277-124.738-126.277h-360.361c-82.39 0-125.125 43.118-125.125 126.277zM598.477 502.766c32.34-32.728 38.499-56.598 38.499-108.57v-149.383h58.906c37.731 0 56.21 19.635 56.21 55.442v318.779h-169.787c-47.353 0-72.763 24.64-72.763 72.38v184.030h-160.931c-37.345 0-56.21-19.635-56.21-55.055v-66.99c42.735-0.385 67.76-8.47 97.406-38.5l208.669-212.134zM572.683 701.039c0-13.475 5.775-18.865 18.864-18.865h140.91l-159.773 162.085v-143.22zM102.211 102.751c0-35.807 18.48-55.442 55.825-55.442h347.655c37.347 0 55.826 19.635 55.826 55.442v282.587h-203.281c-54.67 0-82.005 26.949-82.005 82.004v210.982h-118.195c-37.345 0-55.825-20.020-55.825-55.44v-520.133zM365.552 451.946h185.569l-208.284 211.748v-189.034c0-15.788 6.93-22.715 22.715-22.715z" />
<glyph unicode="&#xe92f;" glyph-name="invalid-signature" horiz-adv-x="1308" d="M366.222 689.778v-80c0-28.001-21.999-48-48-48-28.001 0-48 19.999-48 48v80c0 106 85.999 192 192 192s192-86 192-192v-16c0-46-3.999-90.001-10.001-133.999l266.001 82c18 5.999 37.999 2 50-12.001 12.001-12.001 16-32 10.001-50l-56.001-158h204.001c26.001 0 48-21.999 48-48 0-28.001-21.999-48-48-48h-272c-16 0-32 5.999-39.999 19.999-10.001 12.001-12.001 28.001-6.002 44.001l48 131.999-222-67.999-2-10.001c-23.999-112-67.999-219.998-128-317.998l-30-52.002c-25.998-43.998-71.999-67.999-119.999-67.999-78.001 0-140.001 62-140.001 140.001v147.999c0 78 50 146 124.001 167.999l213.999 68.002c8.001 53.999 14 108.001 14 163.999v16c0 52-44.001 96-96 96-53.999 0-96-44-96-96zM358.224 351.778c-34.002-12.001-56.001-42.001-56.001-78v-149.999c0-24.001 18-44.001 44.001-44.001 14 0 27.998 9.998 35.999 21.999l32 54.002c46 75.998 82 157.998 106.001 245.999l-162-50zM142.222 209.778v-83.999c0-4.002 0-8.001 0-12.001h-80c-28 0-48 19.999-48 48 0 26.001 20 48 48 48h80zM574.222 113.778c18 30 34 62 48 96h624c26.001 0 48-21.999 48-48 0-28.001-21.999-48-48-48h-672z" />
<glyph unicode="&#xe930;" glyph-name="lock-open" d="M767.996 597.333h-42.665v85.333c0 117.76-95.575 213.333-213.335 213.333s-213.333-95.573-213.333-213.333h85.333c0 70.827 57.174 128 127.999 128 70.829 0 128-57.173 128-128v-85.333h-383.999c-46.933 0-85.333-38.399-85.333-85.333v-426.665c0-46.935 38.4-85.335 85.333-85.335h511.999c46.935 0 85.335 38.4 85.335 85.335v426.665c0 46.935-38.4 85.333-85.335 85.333zM767.996 85.335h-511.999v426.665h511.999v-426.665zM511.996 213.335c46.935 0 85.335 38.4 85.335 85.331 0 46.935-38.4 85.335-85.335 85.335-46.931 0-85.331-38.4-85.331-85.335 0-46.931 38.4-85.331 85.331-85.331z" />
<glyph unicode="&#xe931;" glyph-name="star" horiz-adv-x="1072" d="M498.417 930.641c14.122 23.466 48.142 23.466 62.264 0l152.29-253.055c5.075-8.43 13.35-14.443 22.935-16.663l287.73-66.639c26.681-6.18 37.195-38.536 19.242-59.218l-193.61-223.037c-6.449-7.43-9.611-17.158-8.761-26.96l25.538-294.24c2.367-27.286-25.155-47.283-50.374-36.6l-271.948 115.212c-9.061 3.839-19.289 3.839-28.348 0l-271.948-115.212c-25.219-10.683-52.742 9.314-50.374 36.6l25.536 294.24c0.851 9.802-2.31 19.53-8.76 26.96l-193.61 223.037c-17.953 20.682-7.441 53.038 19.241 59.218l287.732 66.639c9.585 2.219 17.86 8.232 22.933 16.663l152.293 253.055z" />
<glyph unicode="&#xe932;" glyph-name="accessibility-icon" d="M501.709 874.569c-0.58-0.142-3.43-0.64-6.336-1.107-6.967-1.119-20.164-5.129-26.466-8.041-19.746-9.123-34.837-28.181-39.351-49.685-2.266-10.808-2.15-15.584 1.088-45.068 3.332-30.348 8.051-42.81 21.099-55.72 8.201-8.116 19.055-13.245 32.683-15.444 6.562-1.058 18.679-0.51 25.033 1.131 6.647 1.719 15.74 6.144 21.444 10.437 5.769 4.341 15.364 15.091 21.141 23.683 8.542 12.707 16.060 31.103 19.422 47.532 1.498 7.33 1.557 8.79 1.122 27.169-0.375 16.002-0.7 20.385-1.852 24.887-3.725 14.549-13.205 25.551-28.535 33.113-10.321 5.090-17.109 6.716-29.577 7.081-5.423 0.158-10.334 0.172-10.914 0.031zM459.81 674.475c-11.401-1.591-22.242-3.97-35.561-7.802-20.786-5.981-47.275-14.129-59.152-18.197-36.719-12.578-76.208-31.581-96.678-46.525-4.387-3.203-8.319-7.146-15.51-15.551-45.176-52.808-75.355-100.323-81.117-127.72-4.228-20.1 3.754-33.826 19.159-32.956 15.476 0.879 35.378 18.684 73.468 65.737 31.042 38.345 39.468 48.268 49.626 58.452 6.111 6.127 15.496 13.519 20.399 16.067 3.727 1.936 4.937 2.205 9.881 2.202 15.491-0.009 23.421-11.197 26.174-36.927 2.47-23.091-1.146-49.775-8.936-65.941l-2.757-5.717-8.649-4.757c-19.401-10.667-35.999-23.117-51.623-38.724-11.978-11.959-19.108-20.463-28.235-33.66-8.386-12.13-13.614-22.332-19.19-37.453-14.716-39.91-22.196-76.548-20.85-102.123 2.771-52.634 19.411-97.011 51.487-137.314 8.518-10.705 17.545-19.849 31.595-32.004 13.383-11.58 20.694-17.173 29.841-22.831 13.84-8.563 23.658-12.698 44.195-18.615 27.802-8.009 45.666-10.761 69.969-10.782 18.658-0.013 27.268 0.811 45.773 4.378 32.085 6.187 63.945 20.911 93.239 43.085 10.133 7.671 28.51 25.741 37.628 36.996 15.334 18.931 28.89 42.773 37.094 65.263 2.15 5.884 9.225 19.921 13.598 26.978 1.801 2.914 1.997 3.025 4.587 2.624 5.965-0.922 12.642-6.477 15.036-12.51 5.841-14.733 19.375-31.902 28.813-36.548 5.086-2.505 12.642-3.362 18.522-2.103 12.651 2.714 32.111 14.208 53.325 31.492 37.867 30.861 53.781 48.841 54.985 62.144 0.499 5.504-0.623 8.533-4.48 12.087-5.773 5.325-14.78 8.435-24.414 8.435h-5.082l-21.466-10.253c-31.774-15.168-30.443-14.635-33.425-13.389-3.635 1.519-7.095 5.589-10.517 12.373-1.66 3.294-21.978 45.914-45.15 94.716-43.426 91.46-45.845 96.154-53.773 104.422-5.491 5.73-14.793 11.055-30.596 17.527-10.59 4.339-35.631 12.57-53.278 17.51-26.773 7.501-56.294 22.362-68.57 34.513-6.997 6.929-9.574 13.572-9.587 24.731-0.017 13.077 2.94 26.232 11.934 53.083 6.566 19.605 7.774 25.332 7.774 36.857 0 21.255-7.782 32.105-26.658 37.173-4.284 1.15-7.966 1.487-18.057 1.648-6.972 0.111-13.628 0.070-14.788-0.092zM487.979 433.775c46.938-7.505 87.373-31.087 117.436-68.489 21.811-27.136 36.425-63.339 39.996-99.076 1.22-12.215 0.495-37.129-1.404-48.329-3.319-19.533-9.19-37.734-17.702-54.874-32.751-65.941-100.262-106.283-172.83-103.275-28.466 1.178-51.924 7.339-77.462 20.335-21.326 10.859-43.572 29.056-59.476 48.661-22.44 27.657-37.196 63.979-40.91 100.698-1.073 10.611-0.491 35.435 1.068 45.495 8.090 52.203 35.059 96.367 77.488 126.882 22.729 16.35 51.973 28.1 79.234 31.846 4.446 0.61 9.037 1.242 10.197 1.404 5.261 0.725 37.658-0.205 44.365-1.28z" />
<glyph unicode="&#xe933;" glyph-name="default-custom" d="M388.844 807.343c-164.578 0-269.87-117.642-269.87-271.723 0-209.967 181.252-375.779 367.444-395.85 20.378-2.778 33.655 8.336 33.655 25.012 0 13.585-8.336 24.082-25.319 27.48-215.526 37.67-321.745 201.938-321.745 344.902 0 123.82 81.825 216.143 212.747 216.143 52.802 0 105.601-15.748 152.844-42.611l40.758 40.758c-58.667 35.509-125.054 55.888-190.514 55.888zM655.008 757.012l52.492-52.183 26.246 26.555c13.278 13.277 14.205 33.039 0.927 46.008l-8.953 8.646c-12.044 11.425-31.497 10.498-44.155-2.47l-26.556-26.555zM340.367 378.145l65.77 25.319 278.515 278.517-52.492 52.491-278.515-278.516-26.866-63.916c-3.395-8.646 5.558-16.983 13.588-13.895zM542.767 253.941c-61.128 9.326-123.148 39.815-171.523 84.372l58.667 23.775c34.924-29.105 76.136-49.827 116.752-57.378-2.778-12.703-4.24-25.899-4.24-39.435 0-3.807 0.116-7.588 0.344-11.335zM716.283 448.806c-1.972 50.922-20.706 100.496-50.467 144.555l39.834 40.141c38.702-55.028 62.598-120.126 63.575-189.49-13.795 3.308-28.197 5.060-43.005 5.060-3.335 0-6.645-0.089-9.935-0.265zM714.789 100.733c-9.263 0-16.056 5.404-18.062 14.357l-7.719 32.886c-5.404 1.851-10.5 3.86-15.132 6.021l-28.562-17.6c-7.564-4.787-16.518-4.015-22.848 2.316l-19.761 19.761c-6.33 6.33-7.257 15.594-2.164 23.158l17.447 28.407c-2.161 4.787-4.17 9.728-5.713 14.515l-33.038 7.872c-8.953 2.009-14.357 8.801-14.357 17.909v27.79c0 9.108 5.404 15.904 14.357 17.909l32.731 7.874c1.696 5.558 3.86 10.497 5.711 14.667l-17.445 29.024c-4.941 7.719-4.324 16.366 2.161 22.851l20.070 19.761c6.485 6.021 14.512 6.947 22.231 2.626l29.026-17.755c4.632 2.316 9.88 4.322 15.284 6.176l7.719 32.884c2.006 9.108 8.799 14.512 18.062 14.512h28.255c9.108 0 16.056-5.404 17.909-14.357l7.872-33.348c5.558-1.854 10.5-3.86 14.977-6.021l29.179 17.909c7.719 4.322 15.749 3.24 22.231-2.626l20.070-19.761c6.485-6.485 7.102-15.132 2.164-22.851l-17.447-29.024c1.854-4.17 4.015-9.108 5.868-14.667l32.729-7.874c8.956-2.006 14.36-8.801 14.36-17.909v-27.79c0-9.108-5.404-15.901-14.36-17.909l-33.038-7.872c-1.544-4.787-3.705-9.728-5.866-14.515l17.445-28.407c5.094-7.564 4.17-16.828-2.161-23.158l-19.763-19.761c-6.328-6.33-15.129-7.102-22.693-2.316l-28.717 17.6c-4.632-2.161-9.725-4.17-14.977-6.021l-7.872-32.886c-1.854-8.953-8.801-14.357-17.909-14.357h-28.255zM728.993 210.658c29.643 0 53.881 24.392 53.881 54.188 0 29.489-24.237 53.883-53.881 53.883-29.796 0-54.191-24.395-54.191-53.883 0-29.796 24.395-54.188 54.191-54.188z" />
<glyph unicode="&#xe934;" glyph-name="default-initials" horiz-adv-x="991" d="M403.664 384.34c-59.57-4.195-127.53-14.263-166.964-13.424-25.171-42.79-46.985-83.902-63.765-120.819-3.356-7.551-10.907-7.551-15.102-1.678-10.068 13.424-13.424 38.595 4.195 85.58 5.034 12.585 12.585 29.366 22.654 47.824-18.458 10.068-25.171 22.654-27.688 28.527-4.195 10.907-2.517 14.263 10.068 12.585 11.746-1.678 24.332-3.356 37.756-4.195 65.444 114.107 182.067 280.231 271.003 353.226 13.424 10.907 21.815 10.907 30.205-0.839s10.907-13.424 19.297-34.4c8.39-20.136 7.551-38.595 0-61.248-21.815-66.281-45.307-151.861-61.248-244.153 25.171-8.39 34.4-25.171 37.756-42.79 1.678-7.551-1.678-10.068-9.229-7.551-10.068 2.517-21.815 4.195-36.078 5.034-5.873-43.629-10.907-89.775-12.585-134.243 0-8.39-5.034-10.907-12.585-7.551-16.78 7.551-30.205 28.527-31.044 76.351 0 16.78 0.839 38.595 3.356 63.765zM268.583 421.257c51.18 4.195 102.36 13.424 141.794 14.263 12.585 87.258 36.078 192.974 62.087 258.417-63.765-71.315-140.116-172.837-203.881-272.68zM784.060 525.295c10.907 20.136 20.975 37.756 30.205 51.18 7.551 10.907 14.263 12.585 20.136 5.034 12.585-15.102 19.297-51.18-0.839-93.131-18.458-37.756-60.409-100.682-80.546-145.15-20.975-46.985-21.815-83.063 6.712-81.385 34.4 1.678 80.546 58.731 109.912 116.624 4.195 7.551 10.068 8.39 13.424 0.839s3.356-28.527-7.551-52.019c-21.815-46.146-74.673-92.292-120.819-89.775-45.307 2.517-68.8 29.366-68.8 68.8-26.849-34.4-64.604-65.444-104.877-65.444-78.029 0-93.97 106.555-24.332 208.077 67.961 99.004 134.243 136.76 176.194 136.76 36.078 0 52.858-27.688 51.18-60.409zM711.066 395.247c52.858 92.292 60.409 144.311 36.078 146.828-26.849 2.517-88.097-52.019-134.243-126.692-44.468-72.156-55.375-145.989-22.654-146.828 34.4-0.839 78.029 52.858 120.819 126.692z" />
<glyph unicode="&#xe935;" glyph-name="arrow-down-small" horiz-adv-x="1058" d="M534.521 738.741c19.108 0 32.044-13.23 32.044-32.634v-365.149l-2.352-63.208 77.616 86.436 66.737 65.853c5.881 5.588 13.821 9.411 22.934 9.411 17.64 0 30.573-13.524 30.573-31.457 0-8.527-3.232-16.172-9.994-23.228l-193.748-194.041c-6.465-6.468-14.991-10.288-23.811-10.288s-17.347 3.82-23.815 10.288l-193.746 194.041c-6.762 7.055-9.996 14.701-9.996 23.228 0 17.934 13.23 31.457 30.87 31.457 8.821 0 17.054-3.823 22.638-9.411l66.737-65.853 77.616-86.729-2.352 63.502v365.149c0 19.404 13.23 32.634 32.048 32.634z" />
<glyph unicode="&#xe936;" glyph-name="zoom-in" horiz-adv-x="1058" d="M244.342 517.342c0 132.007 107.31 239.317 239.317 239.317 132.004 0 239.316-107.31 239.316-239.317 0-51.449-16.759-99.079-44.687-137.591l134.356-134.653c7.939-8.23 12.056-19.108 12.056-30.87 0-24.402-17.934-43.216-42.926-43.216-11.465 0-22.931 3.823-31.164 12.346l-135.24 135.24c-37.632-25.576-82.613-40.571-131.71-40.571-132.007 0-239.317 107.312-239.317 239.316zM306.67 517.342c0-97.608 79.085-176.988 176.989-176.988 97.608 0 176.988 79.38 176.988 176.988s-79.38 176.989-176.988 176.989c-97.905 0-176.989-79.381-176.989-176.989zM384.874 517.342c0 12.937 9.998 22.934 22.931 22.934h52.627v52.917c0 12.643 10.291 22.934 23.228 22.934 12.64 0 22.931-10.291 22.931-22.934v-52.917h52.92c12.643 0 22.931-9.998 22.931-22.934s-10.288-22.931-22.931-22.931h-52.92v-52.92c0-12.643-9.994-22.931-22.931-22.931s-23.228 9.994-23.228 22.931v52.92h-52.627c-12.933 0-22.931 9.994-22.931 22.931z" />
<glyph unicode="&#xe937;" glyph-name="zoom-out" d="M236.46 502.556c0 127.749 103.848 231.597 231.597 231.597 127.746 0 231.596-103.848 231.596-231.597 0-49.79-16.219-95.879-43.246-133.153l130.022-130.309c7.683-7.964 11.667-18.491 11.667-29.874 0-23.615-17.355-41.822-41.541-41.822-11.096 0-22.191 3.7-30.158 11.951l-130.877 130.877c-36.418-24.754-79.948-39.265-127.462-39.265-127.749 0-231.597 103.85-231.597 231.596zM296.777 502.556c0-94.459 76.533-171.279 171.28-171.279 94.459 0 171.279 76.82 171.279 171.279s-76.82 171.28-171.279 171.28c-94.746 0-171.28-76.821-171.28-171.28zM394.65 480.365c-11.948 0-22.191 9.959-22.191 22.191-0.284 12.235 10.243 22.194 22.191 22.194h146.812c12.235 0 22.191-9.959 22.191-22.194 0-12.232-9.956-22.191-22.191-22.191h-146.812z" />
<glyph unicode="&#xe938;" glyph-name="info-icon" d="M514.12 147.132c-166.11 0-303.702 137.298-303.702 303.701 0 166.113 137.298 303.704 303.408 303.704 166.403 0 303.995-137.59 303.995-303.704 0-166.403-137.591-303.701-303.701-303.701zM514.12 206.814c135.24 0 244.019 108.78 244.019 244.019 0 135.243-109.073 243.728-244.313 243.728s-243.432-108.485-243.432-243.728c0-135.24 108.486-244.019 243.726-244.019zM512.355 547.267c-22.050 0-39.69 17.934-39.69 39.69 0 22.344 17.64 39.984 39.69 39.984s39.69-17.64 39.69-39.984c0-21.757-17.64-39.69-39.69-39.69zM462.671 289.133c-12.937 0-23.228 9.411-23.228 22.641 0 12.346 10.291 22.050 23.228 22.050h34.987v122.89h-29.696c-13.23 0-23.224 9.407-23.224 22.637 0 12.349 9.994 22.344 23.224 22.344h55.272c16.466 0 24.992-11.465 24.992-28.812v-139.059h32.925c12.937 0 23.228-9.704 23.228-22.050 0-13.23-10.291-22.641-23.228-22.641h-118.48z" />
<glyph unicode="&#xe939;" glyph-name="select-sign" d="M217.398 520.159c0 141.973 97.020 250.373 248.668 250.373 60.317 0 121.486-18.778 175.547-51.497l-37.558-37.556c-43.53 24.753-92.183 39.263-140.836 39.263-120.634 0-196.030-85.071-196.030-199.163 0-131.729 97.875-283.093 296.465-317.803 15.651-3.128 23.331-12.803 23.331-25.323 0-15.363-12.235-25.607-31.011-23.047-171.563 18.495-338.575 171.279-338.575 364.752zM759.686 676.073l-48.369 48.083 24.47 24.469c11.664 11.949 29.587 12.803 40.686 2.276l8.251-7.966c12.232-11.95 11.38-30.159-0.856-42.393l-24.183-24.468zM481.997 398.386l-60.601-23.331c-7.399-2.844-15.647 4.836-12.519 12.803l24.754 58.893 256.631 256.635 48.369-48.368-256.634-256.633zM816.587 431.672c0-102.995-71.128-173.839-172.983-173.839-67.148 0-139.7 30.73-193.757 80.519l54.057 21.907c40.973-34.142 91.331-55.765 137.992-55.765 69.137 0 126.041 49.221 126.041 127.465 0 49.79-17.643 98.443-46.661 141.404l36.702 36.986c36.418-51.781 58.609-113.238 58.609-178.678z" />
<glyph unicode="&#xe93a;" glyph-name="info-document" horiz-adv-x="991" d="M504.115 166.773c-160.751 0-293.904 132.869-293.904 293.905 0 160.751 132.869 293.906 293.62 293.906 161.036 0 294.189-133.155 294.189-293.906 0-161.036-133.153-293.905-293.905-293.905zM504.115 224.53c130.877 0 236.151 105.271 236.151 236.148s-105.558 235.865-236.435 235.865c-130.877 0-235.579-104.988-235.579-235.865s104.986-236.148 235.863-236.148zM502.407 554.001c-21.336 0-38.407 17.355-38.407 38.41 0 21.623 17.071 38.693 38.407 38.693 21.339 0 38.41-17.070 38.41-38.693 0-21.055-17.071-38.41-38.41-38.41zM454.326 304.194c-12.519 0-22.475 9.104-22.475 21.907 0 11.951 9.956 21.339 22.475 21.339h33.858v118.929h-28.738c-12.803 0-22.475 9.104-22.475 21.907 0 11.951 9.672 21.623 22.475 21.623h53.489c15.935 0 24.186-11.096 24.186-27.883v-134.577h31.866c12.516 0 22.475-9.388 22.475-21.339 0-12.803-9.959-21.907-22.475-21.907h-114.662z" />
<glyph unicode="&#xe93b;" glyph-name="sign-place" d="M98.442 190.389c-14.112 0-25.578 12.056-25.578 25.873 0 14.111 11.466 25.873 25.578 25.873h201.684c16.17 37.338 42.924 76.145 77.911 110.838-74.677 54.095-137.299 136.711-137.299 234.022 0 84.968 58.8 149.353 137.592 149.353 112.602 0 188.16-120.245 196.096-276.947 20.289 4.116 41.161 6.175 62.918 6.175 39.984 0 65.266-19.992 65.266-52.040 0-20.579-10.878-41.158-10.878-50.862 0-3.232 1.765-4.704 4.116-4.704 19.111 0 96.433 95.549 148.767 95.549 60.856 0 33.222-96.727 62.034-96.727 9.114 0 17.64 7.646 27.634 7.646 13.524 0 22.050-10.878 22.050-23.815 0-10.288-5.588-18.227-13.524-23.518-12.349-8.233-28.812-11.762-41.748-11.762-74.383 0-51.156 89.965-71.148 89.965-22.344 0-95.549-100.844-156.703-100.844-23.521 0-40.864 14.995-40.864 38.516 0 26.46 14.111 46.159 14.111 70.56 0 6.762-4.997 10.581-14.111 10.581-19.992 0-39.103-2.058-57.624-6.171-2.058-61.447-12.056-117.897-28.518-165.816h396.899c14.111 0 25.58-11.762 25.58-25.873 0-13.817-11.469-25.873-25.58-25.873h-418.949c-35.574-67.912-88.494-109.073-154.057-109.073-57.917 0-87.024 35.28-87.024 87.023 0 7.059 0.588 14.408 1.764 22.050h-186.396zM291.894 586.994c0-89.668 64.093-158.758 123.481-201.093 31.751 24.695 68.205 45.568 108.189 59.682-3.526 133.769-60.269 239.608-145.234 239.608-49.392 0-86.437-42.336-86.437-98.198zM87.564 304.463c-8.232 8.233-8.232 20.873 0 29.399l35.574 35.28-35.574 35.28c-8.232 8.233-8.232 21.169 0 29.693 8.526 8.233 21.168 8.233 29.694 0l35.574-35.28 35.574 35.28c8.232 8.233 20.874 8.527 29.4 0 8.232-8.523 8.526-21.166 0-29.693l-35.574-35.28 35.574-35.28c8.526-8.233 8.526-21.166 0-29.399-8.526-8.527-21.168-8.527-29.4 0l-35.574 35.28-35.574-35.574c-8.526-7.939-21.168-8.233-29.694 0.294zM443.89 313.576c-7.642 3.529-15.285 7.642-22.931 11.759-28.225-26.167-50.275-55.566-64.973-83.2h135.24c16.463 41.748 27.634 93.198 31.164 149.35-22.050-9.114-42.923-20.873-61.74-34.103 2.058-1.178 4.41-2.058 6.468-3.236 9.701-5.291 13.23-13.23 13.23-21.46 0-12.056-9.998-22.344-23.521-22.344-4.116 0-8.527 0.881-12.937 3.232zM336.288 175.985c0-25.873 12.937-43.513 39.691-43.513 33.809 0 64.386 21.463 88.494 57.917h-127.009c-0.882-4.997-1.176-9.701-1.176-14.404z" />
<glyph unicode="&#xe93c;" glyph-name="delete-icon" d="M449.098 671.099c-3.528 0-5.88-2.35-8.233-4.703l-22.344-32.929h170.522l-22.346 32.929c-1.175 2.353-4.703 4.703-8.23 4.703h-109.368zM657.249 633.467h82.322c15.286 0 28.224-12.936 28.224-28.224 0-16.463-12.938-28.224-28.224-28.224h-14.113l-28.224-382.198c-3.528-39.985-35.279-69.386-75.264-69.386h-236.375c-39.985 0-71.736 29.402-75.264 69.386l-28.224 382.198h-12.936c-16.465 0-28.225 11.761-28.225 28.224 0 15.288 11.76 28.224 28.225 28.224h81.142l43.512 64.681c11.761 17.64 32.929 29.4 55.273 29.4h109.368c22.344 0 43.512-11.76 55.27-29.4l43.512-64.681zM669.010 577.019h-330.455l28.224-378.67c1.175-9.408 9.408-16.466 18.816-16.466h236.375c9.408 0 17.641 7.058 18.816 16.466l28.224 378.67z" />
<glyph unicode="&#xe93d;" glyph-name="icon-close" horiz-adv-x="999" d="M367.491 306.91c-7.193 7.026-7.026 19.409 0 26.267l102.9 103.069-102.9 102.9c-7.026 6.858-7.193 19.074 0 26.437 7.195 7.193 19.409 7.026 26.437 0l102.9-102.902 102.9 102.902c7.195 7.026 19.076 7.026 26.437-0.167 7.363-7.028 7.195-19.244 0.167-26.269l-102.9-102.9 102.9-103.069c7.028-7.026 7.028-19.074-0.167-26.267-7.193-7.363-19.241-7.195-26.437-0.167l-102.9 102.9-102.9-102.9c-7.028-7.028-19.074-7.028-26.437 0.167z" />
<glyph unicode="&#xe93e;" glyph-name="delete-icon-big" horiz-adv-x="896" d="M364.497 862.5c-5.88 0-9.8-3.92-13.72-7.84l-37.24-54.88h284.202l-37.244 54.88c-1.958 3.92-7.838 7.84-13.717 7.84h-182.281zM711.415 799.78h137.203c25.476 0 47.040-21.56 47.040-47.040 0-27.44-21.564-47.040-47.040-47.040h-23.522l-47.040-636.998c-5.879-66.641-58.799-115.644-125.44-115.644h-393.96c-66.64 0-119.56 49.003-125.44 115.644l-47.040 636.998h-21.56c-27.44 0-47.040 19.6-47.040 47.040 0 25.48 19.6 47.040 47.040 47.040h135.24l72.52 107.8c19.6 29.4 54.88 49 92.12 49h182.281c37.239 0 72.521-19.6 92.117-49l72.521-107.8zM731.017 705.7h-550.76l47.040-631.119c1.96-15.68 15.68-27.443 31.36-27.443h393.96c15.68 0 29.402 11.763 31.36 27.443l47.040 631.119z" />
<glyph unicode="&#xe93f;" glyph-name="close-icon" d="M60.93 8.61c-24.582 24.004-24.010 66.313 0 89.745l351.575 352.15-351.575 351.575c-24.010 23.438-24.582 65.17 0 90.323 24.582 24.582 66.313 24.010 90.323 0l351.575-351.575 351.572 351.575c24.585 24.010 65.178 24.010 90.325-0.572 25.156-24.010 24.585-65.742 0.572-89.751l-351.573-351.575 351.573-352.15c24.013-24.004 24.013-65.169-0.572-89.745-24.576-25.156-65.741-24.585-90.325-0.572l-351.572 351.572-351.575-351.572c-24.010-24.013-65.17-24.013-90.323 0.572z" />
<glyph unicode="&#xe940;" glyph-name="arrow-dropdown" horiz-adv-x="1078" d="M731.459 533l-154.43-154.093-154.432 154.093-47.439-47.439 201.871-201.87 201.868 201.87-47.438 47.439z" />
<glyph unicode="&#xe941;" glyph-name="paper-icon" horiz-adv-x="989" d="M570.735 686.552h-271.302c-29.843 0-53.989-24.417-53.989-54.26l-0.271-379.822c0-29.841 24.146-54.258 53.989-54.258h380.093c29.844 0 54.261 24.417 54.261 54.258v271.304l-162.781 162.779zM299.433 252.469v379.822h244.17v-135.651h135.652v-244.171h-379.822zM407.955 550.901c0-14.922-12.21-27.129-27.132-27.129s-27.129 12.207-27.129 27.129c0 14.922 12.207 27.129 27.129 27.129s27.132-12.207 27.132-27.129zM407.955 442.382c0-14.922-12.21-27.132-27.132-27.132s-27.129 12.21-27.129 27.132c0 14.919 12.207 27.129 27.129 27.129s27.132-12.21 27.132-27.129zM407.955 333.859c0-14.922-12.21-27.129-27.132-27.129s-27.129 12.207-27.129 27.129c0 14.922 12.207 27.132 27.129 27.132s27.132-12.21 27.132-27.132z" />
<glyph unicode="&#xe942;" glyph-name="scroll-up" d="M512.697 185.1c-18.211 0-31.014 12.803-31.014 31.579v353.369l2.279 61.456-75.115-83.931-64.585-63.732c-5.404-5.407-13.371-9.104-21.907-9.104-17.071 0-29.874 13.087-29.874 30.443 0 8.251 3.129 15.647 9.673 22.475l187.495 187.782c6.26 6.259 14.511 9.958 23.047 9.958s16.787-3.699 23.047-9.958l187.494-187.782c6.544-6.828 9.675-14.224 9.675-22.475 0-17.355-12.519-30.443-29.59-30.443-8.82 0-16.503 3.696-22.191 9.104l-64.588 63.732-75.112 83.647 2.276-61.172v-353.369c0-18.776-12.516-31.579-31.011-31.579z" />
<glyph unicode="&#xe943;" glyph-name="add" horiz-adv-x="975" d="M772.125 425.921h-243.81v-243.81h-81.268v243.81h-243.81v81.27h243.81v243.81h81.268v-243.81h243.81v-81.27z" />
<glyph unicode="&#xe944;" glyph-name="rename-icon" d="M734.214 663.023l-41.949 41.947c-27.040 27.040-71.066 27.040-98.106 0l-394.16-394.16v-140.054h140.054l394.16 394.16c27.386 27.040 27.386 71.069 0 98.108zM311.28 240.090h-41.947v41.946l300.212 300.214 41.949-41.946-300.214-300.214zM477.334 170.755l138.666 138.669h208v-138.669h-346.666z" />
<glyph unicode="&#xe945;" glyph-name="triple-dots-horizontaly" horiz-adv-x="983" d="M327.733 518.201c-30.037 0-54.613-24.576-54.613-54.616 0-30.036 24.576-54.612 54.613-54.612s54.614 24.576 54.614 54.612c0 30.040-24.576 54.616-54.614 54.616zM655.413 518.201c-30.036 0-54.612-24.576-54.612-54.616 0-30.036 24.576-54.612 54.612-54.612s54.612 24.576 54.612 54.612c0 30.040-24.576 54.616-54.612 54.616zM491.573 518.201c-30.036 0-54.612-24.576-54.612-54.616 0-30.036 24.576-54.612 54.612-54.612s54.612 24.576 54.612 54.612c0 30.040-24.576 54.616-54.612 54.616z" />
<glyph unicode="&#xe946;" glyph-name="checkmark1" d="M420.796 337.766l-98.703 98.701c-11.093 11.093-29.013 11.093-40.107 0s-11.093-29.013 0-40.107l118.898-118.895c11.093-11.093 29.012-11.093 40.105 0l300.945 300.941c11.093 11.093 11.093 29.013 0 40.107s-29.013 11.093-40.107 0l-281.033-280.747z" />
<glyph unicode="&#xe947;" glyph-name="arrow-left-short" d="M735.737 469.469h-330.173l151.658 151.657-38.527 38.253-217.040-217.040 217.040-217.042 38.255 38.252-151.386 151.658h330.173v54.261z" />
<glyph unicode="&#xe948;" glyph-name="arrow-right-short" horiz-adv-x="989" d="M492.558 659.379l-38.252-38.253 151.386-151.657h-330.175v-54.261h330.175l-151.386-151.658 38.252-38.252 217.042 217.042-217.042 217.040z" />
<glyph unicode="&#xe949;" glyph-name="accessiblity" d="M524.769 89.605c-47.209 0-91.709 9.037-133.496 27.108-41.564 18.068-78.269 43.028-110.118 74.88-31.849 31.849-56.809 68.554-74.88 110.116-18.071 41.789-27.106 86.287-27.106 133.496 0 47.212 9.035 91.597 27.106 133.158 18.071 41.789 42.918 78.607 74.542 110.456 31.849 31.85 68.554 56.81 110.116 74.881 41.789 18.071 86.287 27.106 133.496 27.106 47.212 0 91.709-9.035 133.499-27.106 41.787-18.071 78.605-43.031 110.456-74.881 31.849-31.849 56.809-68.667 74.88-110.456 18.068-41.562 27.105-85.947 27.105-133.158 0-47.209-9.037-91.707-27.105-133.496-18.071-41.562-43.031-78.267-74.88-110.116-31.852-31.852-68.669-56.812-110.456-74.88-41.564-18.071-85.949-27.108-133.158-27.108zM524.769 147.205c39.98 0 77.363 7.455 112.151 22.364 34.785 14.907 65.393 35.464 91.82 61.665 26.429 26.427 46.984 57.034 61.668 91.822 14.907 34.785 22.362 72.169 22.362 112.148 0 39.982-7.455 77.366-22.362 112.151-14.909 34.785-35.579 65.393-62.006 91.822-26.202 26.427-56.809 46.984-91.822 61.665-34.785 14.909-72.169 22.363-112.151 22.363-39.98 0-77.363-7.454-112.148-22.363-34.788-14.682-65.28-35.238-91.484-61.665-26.202-26.429-46.756-57.037-61.665-91.822-14.682-34.785-22.023-72.169-22.023-112.151 0-39.98 7.341-77.363 22.023-112.148 14.909-34.788 35.464-65.395 61.665-91.822 26.429-26.202 57.037-46.758 91.822-61.665 34.785-14.909 72.169-22.364 112.151-22.364zM524.429 550.067c16.038 0 33.544 0.678 52.518 2.033 18.975 1.582 37.046 3.389 54.213 5.422 17.393 2.033 31.508 3.84 42.353 5.42 1.58 0.228 3.049 0.453 4.403 0.678 1.582 0.453 3.164 0.678 4.744 0.678 4.068 0 8.020-1.695 11.86-5.082 3.84-3.389 5.76-8.133 5.76-14.231 0-10.166-4.856-16.489-14.572-18.975-2.708-0.904-8.809-2.033-18.296-3.389-9.26-1.354-19.651-2.821-31.171-4.403-11.295-1.357-21.573-2.711-30.833-4.065-9.262-1.132-15.022-1.92-17.28-2.373-10.166-2.258-15.247-9.487-15.247-21.683 0-5.875 0-15.135 0-27.784 0.225-12.424 0.566-25.413 1.016-38.966 0.451-13.327 1.354-24.169 2.711-32.527 0.904-5.194 2.598-13.553 5.082-25.073 2.486-11.52 5.309-24.394 8.471-38.625 3.387-14.006 6.664-27.671 9.825-40.998 3.162-13.102 5.76-24.282 7.793-33.544 2.26-9.034 3.502-14.003 3.727-14.907 1.807-6.551 1.016-12.424-2.371-17.62-3.389-4.969-8.358-7.452-14.909-7.452-9.938 0-16.489 5.985-19.651 17.956-1.357 6.1-3.615 15.247-6.776 27.446-3.164 12.198-6.551 25.185-10.166 38.963-3.387 14.006-6.664 26.767-9.825 38.287-3.162 11.748-5.422 20.216-6.776 25.413-2.486 7.227-4.856 12.311-7.117 15.247-2.258 3.162-5.42 4.744-9.487 4.744-4.291 0-7.565-1.582-9.825-4.744-2.258-2.936-4.403-8.020-6.436-15.247-1.582-5.197-3.955-13.665-7.117-25.413-3.162-11.52-6.551-24.282-10.163-38.287-3.615-13.778-7.004-26.765-10.166-38.963-2.936-12.198-5.082-21.345-6.438-27.446-3.387-11.971-9.938-17.956-19.651-17.956-6.551 0-11.633 2.483-15.247 7.452-3.389 5.197-4.178 11.069-2.373 17.62 0.228 0.904 1.469 5.873 3.727 14.907 2.26 9.262 4.969 20.442 8.133 33.544 3.162 13.327 6.323 26.993 9.487 40.998 3.387 14.231 6.323 27.105 8.809 38.625 2.483 11.52 4.065 19.878 4.744 25.073 1.58 8.358 2.596 19.2 3.049 32.527 0.678 13.553 1.016 26.542 1.016 38.966 0.225 12.649 0.338 21.908 0.338 27.784-0.451 12.424-5.647 19.651-15.585 21.683-2.483 0.453-8.358 1.242-17.618 2.373-9.262 1.354-19.54 2.708-30.833 4.065-11.295 1.582-21.686 3.049-31.173 4.403-9.487 1.357-15.585 2.486-18.296 3.389-9.487 2.258-14.231 8.584-14.231 18.975 0 6.098 1.807 10.842 5.422 14.231 3.615 3.387 7.567 5.082 11.858 5.082 1.582 0 3.164-0.225 4.744-0.678 1.582-0.225 3.049-0.451 4.406-0.678 11.067-1.58 25.185-3.387 42.353-5.42 17.393-2.033 35.576-3.84 54.551-5.422 18.975-1.354 36.48-2.033 52.516-2.033zM524.429 572.091c-12.196 0-22.587 4.291-31.171 12.874-8.584 8.812-12.874 19.2-12.874 31.173 0 12.198 4.291 22.587 12.874 31.171s18.975 12.877 31.171 12.877c12.198 0 22.589-4.293 31.173-12.877s12.874-18.972 12.874-31.171c0-11.973-4.291-22.362-12.874-31.173-8.584-8.584-18.975-12.874-31.173-12.874z" />
<glyph unicode="&#xe94a;" glyph-name="shield-with-star" d="M511.423 97.423c-5.666 0-14.665 2.333-23.332 7-191.333 104.668-258 152.334-258 273.669v252.332c0 39.333 15.333 53.667 48.333 67.334 36.999 15.333 162.001 61.667 198.335 71.667 11 3 23.667 6 34.664 6 11.335 0 24.002-2.333 34.667-6 36.669-12 161.668-56 198.668-71.667 33.001-14 48.333-28 48.333-67.334v-252.332c0-121.335-66.666-169.335-258.001-273.669-8.667-4.667-17.666-7-23.667-7zM511.423 167.424c5.002 0 9.669 1.666 19.335 7.668 150.668 90.667 199.668 117.332 199.668 215.667v229.001c0 11.664-2.333 16.666-11.667 19.999-49.999 18-145.002 51.666-190.002 69.333-7.332 2.667-12.331 3.667-17.334 3.667-4.664 0-9.998-1-17.33-3.667-44.668-17.666-140.67-49.333-190.002-69.333-9-3.668-11.666-8.335-11.666-19.999v-229.001c0-97.668 47.333-123.001 199.999-215.667 9.334-6.001 14.336-7.668 19-7.668zM358.757 539.425l2.333 4c10.333 20.666 20.666 23.332 41.335 11.667l75.664-44.333v88.666c0 22 7.668 29.333 31.334 29.333h4.667c23.332 0 30.667-7.332 30.667-29.333v-88.666l75.664 44.333c20.669 12.331 31.002 9.334 41.335-11.667l2.666-4c10.668-20.334 7.668-30.332-11.332-40.668l-79.335-43.331 79.667-46.002c18.333-10.665 20.666-20.331 10.333-41l-1.998-3.333c-10.668-20.666-20.666-23.667-40.668-11.332l-76.331 44.001v-88.669c0-22.665-7.336-30-30.667-30h-4.667c-23.999 0-31.334 7.336-31.334 30v88.669l-75.999-44.001c-19.332-11.667-29.333-8.999-40.665 11.332l-2.333 3.333c-11.335 20.334-8.667 30 10.665 41l79.667 46.002-79.332 43.331c-19.335 10.336-22 20.334-11.335 40.668z" />
<glyph unicode="&#xe94b;" glyph-name="shield" d="M511.423 97.423c-5.666 0-14.665 2.333-23.332 7-191.333 104.668-258 152.334-258 273.669v252.332c0 39.333 15.333 53.667 48.333 67.334 36.999 15.333 162.001 61.667 198.335 71.667 11 3 23.667 6 34.664 6 11.335 0 24.002-2.333 34.667-6 36.669-12 161.668-56 198.668-71.667 33.001-14 48.333-28 48.333-67.334v-252.332c0-121.335-66.666-169.335-258.001-273.669-8.667-4.667-17.666-7-23.667-7zM511.423 167.424c5.002 0 9.669 1.666 19.335 7.668 150.668 90.667 199.668 117.332 199.668 215.667v229.001c0 11.664-2.333 16.666-11.667 19.999-49.999 18-145.002 51.666-190.002 69.333-7.332 2.667-12.331 3.667-17.334 3.667-4.664 0-9.998-1-17.33-3.667-44.668-17.666-140.67-49.333-190.002-69.333-9-3.668-11.666-8.335-11.666-19.999v-229.001c0-97.668 47.333-123.001 199.999-215.667 9.334-6.001 14.336-7.668 19-7.668z" />
<glyph unicode="&#xe94c;" glyph-name="replay" d="M512.028 703.987v170.667l-213.335-213.333 213.335-213.332v170.666c141.225 0 256-114.775 256-256s-114.775-256-256-256c-141.229 0-256.002 114.775-256.002 256h-85.333c0-188.585 152.747-341.335 341.335-341.335 188.585 0 341.331 152.749 341.331 341.335s-152.745 341.333-341.331 341.333z" />
<glyph unicode="&#xe94d;" glyph-name="default-signature" d="M192.123 522.039c0 155.525 107.898 274.301 274.008 274.301 59.682 0 120.538-18.816 175.223-51.156l-52.333-52.332c-39.984 21.462-84.378 34.104-129.065 34.104-119.070 0-198.743-83.496-198.743-202.859 0-129.949 90.551-277.538 287.825-323.106 20.876-5.588 32.048-16.172 32.048-34.987 0-25.283-20.876-35.28-44.981-31.457-159.055 20.873-343.982 176.398-343.982 387.492zM780.124 691.088l-61.153 60.858 28.518 27.93c14.995 14.994 38.219 17.64 51.743 4.41l10.291-10.29c15.288-15.288 13.23-38.514-2.058-54.39l-27.341-28.518zM489.946 401.203l-70.854-27.047c-10.291-3.823-22.050 6.468-17.64 18.227l27.634 69.973 267.54 267.246 60.86-60.858-267.54-267.541zM834.512 436.483c0-112.012-77.616-190.218-191.392-190.218-71.738 0-148.47 31.457-202.274 83.203l74.383 29.105c35.867-29.693 81.145-48.51 124.361-48.51 70.267 0 127.304 50.275 127.304 126.713 0 43.22-15.582 87.907-41.748 129.068l51.156 51.449c36.161-53.507 58.211-115.541 58.211-180.811z" />
<glyph unicode="&#xe94e;" glyph-name="square-devided" d="M261.062 468.032c-43.656 0-65.656 22-65.656 67.373v153.658c0 45.375 22 67.031 65.656 67.031h156.749c43.658 0 65.658-21.656 65.658-67.031v-153.658c0-45.373-22-67.373-65.658-67.373h-156.749zM606.189 468.032c-44 0-66 22-66 67.373v153.658c0 45.375 22 67.031 66 67.031h156.406c43.654 0 65.654-21.656 65.654-67.031v-153.658c0-45.373-22-67.373-65.654-67.373h-156.406zM261.75 516.499h155.031c12.032 0 18.221 6.189 18.221 18.906v153.658c0 12.375-6.189 18.563-18.221 18.563h-155.031c-12.031 0-17.875-6.188-17.875-18.563v-153.658c0-12.717 5.844-18.906 17.875-18.906zM606.874 516.499h155.034c12.029 0 17.875 6.189 17.875 18.906v153.658c0 12.375-5.846 18.563-17.875 18.563h-155.034c-12.374 0-18.218-6.188-18.218-18.563v-153.658c0-12.717 5.843-18.906 18.218-18.906zM261.062 123.251c-43.656 0-65.656 21.654-65.656 67.030v154c0 45.030 22 67.030 65.656 67.030h156.749c43.658 0 65.658-22 65.658-67.030v-154c0-45.376-22-67.030-65.658-67.030h-156.749zM606.189 123.251c-44 0-66 21.654-66 67.030v154c0 45.030 22 67.030 66 67.030h156.406c43.654 0 65.654-22 65.654-67.030v-154c0-45.376-22-67.030-65.654-67.030h-156.406zM261.75 171.718h155.031c12.032 0 18.221 6.189 18.221 18.563v153.654c0 12.72-6.189 18.909-18.221 18.909h-155.031c-12.031 0-17.875-6.189-17.875-18.909v-153.654c0-12.374 5.844-18.563 17.875-18.563zM606.874 171.718h155.034c12.029 0 17.875 6.189 17.875 18.563v153.654c0 12.72-5.846 18.909-17.875 18.909h-155.034c-12.374 0-18.218-6.189-18.218-18.909v-153.654c0-12.374 5.843-18.563 18.218-18.563z" />
<glyph unicode="&#xe94f;" glyph-name="house-home" d="M278.25 108.125c-49.156 0-77.687 27.843-77.687 75.968v327.939l-44.688-37.814c-7.219-5.843-15.125-10.998-24.75-10.998-18.563 0-29.563 13.405-29.563 27.501 0 7.904 3.437 16.154 11 22.342l358.186 300.781c25.782 21.656 57.408 21.656 82.845 0l180.813-151.938v69.781c0 15.125 9.968 24.75 24.749 24.75h36.781c15.126 0 24.752-9.625 24.752-24.75v-142.311l90.749-76.314c7.219-6.189 10.656-13.062 10.656-23.376 0-16.499-13.062-26.467-29.219-26.467-9.622 0-17.53 5.155-24.406 10.998l-47.779 40.221v-330.346c0-48.125-28.531-75.968-77.344-75.968h-465.094zM611.002 393.782v-230.314h120.656c21.654 0 33.686 12.374 33.686 34.72v362.656l-240.97 202.124c-7.562 6.875-16.842 6.875-24.406 0l-244.062-204.53v-360.25c0-22.346 12.031-34.72 34.031-34.72h122.718v230.314c0 15.811 10.314 26.125 26.47 26.125h145.747c15.814 0 26.128-10.314 26.128-26.125z" />
<glyph unicode="&#xe950;" glyph-name="arrows-history" d="M190.594 662.938l177.032 173.25c6.186 6.188 15.123 9.625 22.688 9.625 18.218 0 30.592-12.375 30.592-30.25 0-8.938-3.094-15.469-8.938-21.313l-73.904-71.844-63.939-55 79.408 3.093h459.248c17.875 0 30.595-12.719 30.595-30.593 0-18.221-12.72-30.938-30.595-30.938h-459.248l-79.408 3.437 63.939-55.344 73.904-71.501c5.843-5.843 8.938-12.717 8.938-21.312 0-17.875-12.374-30.592-30.592-30.592-7.565 0-16.502 3.779-22.688 9.968l-177.032 173.248c-13.406 12.72-14.094 32.658 0 46.064zM833.405 216.749l-177.030-173.248c-6.186-5.843-15.123-9.626-23.030-9.626-18.218 0-30.25 12.374-30.25 30.25 0 8.938 2.749 15.811 8.592 21.658l74.25 71.498 63.939 55.344-79.408-3.437h-459.248c-17.875 0-30.938 12.72-30.938 30.938 0 17.875 13.062 30.595 30.938 30.595h459.248l79.408-3.44-63.939 55.344-74.25 71.843c-5.843 5.501-8.592 12.378-8.592 21.315 0 17.875 12.032 30.25 30.25 30.25 7.907 0 16.845-3.782 23.030-9.626l177.030-173.251c13.408-13.062 13.75-32.998 0-46.406z" />
<glyph unicode="&#xe951;" glyph-name="laptop-developers" d="M16.313 199.219c0 21.654 17.531 39.187 38.844 39.187h75.281v408.031c0 48.125 28.188 72.875 73.563 72.875h616c47.782 0 73.562-24.75 73.562-72.875v-408.031h75.283c21.312 0 38.842-17.533 38.842-39.187 0-21.658-17.53-39.187-38.842-39.187h-913.689c-21.312 0-38.844 17.53-38.844 39.187zM185.781 238.406h652.436v392.563c0 21.999-10.998 32.999-32.998 32.999h-586.438c-22 0-33-11-33-32.999v-392.563z" />
<glyph unicode="&#xe952;" glyph-name="weel-support" d="M512 89.562c-191.469 0-350.625 159.158-350.625 350.627 0 191.811 158.814 350.624 350.283 350.624 191.811 0 350.966-158.812 350.966-350.624 0-191.469-158.813-350.627-350.624-350.627zM512 624.093c32.314 0 62.563-8.25 89.030-23.030l78.72 78.719c-47.437 33.344-105.533 52.594-168.093 52.594-62.221 0-119.626-18.906-166.72-51.906l79.062-79.064c26.125 14.438 56.032 22.688 88 22.688zM220.156 440.189c0-62.563 19.25-120.314 52.594-167.75l78.376 78.717c-14.438 26.125-23.034 56.72-23.034 89.034 0 31.622 7.907 61.187 22 87.312l-79.061 78.717c-31.969-47.091-50.875-104.154-50.875-166.029zM695.907 440.189c0-31.971-8.25-62.221-22.688-88.346l79.062-78.717c32.656 47.091 51.907 104.842 51.907 167.062 0 61.53-18.563 118.25-50.877 165.344l-79.062-79.066c13.75-25.779 21.658-54.998 21.658-86.278zM512 314.374c69.437 0 125.811 56.374 125.811 125.814 0 69.437-56.374 125.811-125.811 125.811s-125.811-56.374-125.811-125.811c0-69.44 56.374-125.814 125.811-125.814zM512 148c61.875 0 118.938 18.906 166.032 51.219l-79.062 79.062c-25.782-14.093-55.69-22-86.97-22-30.938 0-60.499 7.907-85.936 21.654l-79.062-79.062c46.749-32.31 103.466-50.874 164.998-50.874z" />
<glyph unicode="&#xe953;" glyph-name="phone-devices" d="M512 85.782c-148.499 0-240.625 85.248-240.625 233.405v446.875c0 15.125 12.375 27.844 27.5 27.844 15.469 0 27.845-12.719 27.845-27.844v-75.281h332.061c57.408 0 93.501-34.719 93.501-89.376v-282.218c0-148.157-92.125-233.405-240.282-233.405zM512 139.75c113.094 0 184.938 64.282 184.938 175.654v277.062c0 27.158-16.499 42.97-45.376 42.97h-324.842v-320.032c0-111.373 72.186-175.654 185.28-175.654zM391.344 369.030c-18.563 0-30.25 11.344-30.25 29.565v172.56c0 18.563 11.686 29.907 30.25 29.907h240.97c18.906 0 30.25-11.344 30.25-29.907v-172.56c0-18.221-11.344-29.565-30.25-29.565h-240.97zM463.187 198.874c-12.72 0-23.376 10.314-23.376 23.376s10.656 23.376 23.376 23.376h95.562c13.062 0 23.376-10.314 23.376-23.376s-10.314-23.376-23.376-23.376h-95.562z" />
<glyph unicode="&#xe954;" glyph-name="avatar-default" d="M784.664 338.786c-71.68 36.695-164.691 66.56-272.636 66.56-107.949 0-200.962-29.865-272.642-66.56-42.667-21.76-68.693-65.705-68.693-113.495v-118.611h682.666v118.611c0 47.789-26.025 91.735-68.695 113.495zM768.028 192.012h-512.002v33.28c0 16.215 8.533 30.72 22.187 37.549 50.773 26.025 132.695 57.171 233.815 57.171s183.036-31.145 233.811-57.171c13.655-6.829 22.189-21.335 22.189-37.549v-33.28zM417.308 448.012h189.44c51.625 0 91.305 45.229 84.48 96.429l-13.655 104.532c-13.225 81.067-83.625 140.373-165.545 140.373s-152.322-59.307-165.549-140.373l-13.653-104.532c-6.827-51.2 32.853-96.429 84.482-96.429zM430.958 636.173c6.829 39.253 40.96 67.84 81.069 67.84 40.105 0 74.236-28.587 81.065-67.84l13.655-102.827h-189.44l13.651 102.827z" />
<glyph unicode="&#xe955;" glyph-name="play-icon" d="M512.003 794.667c-191.36 0-346.667-155.307-346.667-346.667s155.307-346.666 346.667-346.666c191.36 0 346.666 155.306 346.666 346.666s-155.306 346.667-346.666 346.667zM512.003 170.666c-152.88 0-277.334 124.454-277.334 277.334s124.454 277.333 277.334 277.333c152.88 0 277.331-124.453 277.331-277.333s-124.451-277.334-277.331-277.334zM425.334 292l242.669 156-242.669 156v-312z" />
<glyph unicode="&#xe956;" glyph-name="ab-icon" horiz-adv-x="1162" d="M281.514 916.973l171.243-404.757c9.728-23.35-1.946-52.54-25.298-62.27-23.35-9.728-50.594 1.946-62.27 25.298l-19.459 50.594h-216l-19.459-50.594c-9.73-23.353-36.973-35.026-62.27-25.298-23.351 11.676-35.027 38.92-25.297 62.27l171.243 404.757c7.784 17.514 25.298 29.189 44.757 29.189 17.513 0 35.027-11.676 42.812-29.189zM304.864 619.243l-66.161 159.567-68.108-159.567h134.27zM518.919 899.459c0 25.297 19.459 46.703 46.703 46.703h147.891c81.732 0 147.893-66.162 147.893-147.892 0-33.081-11.676-62.27-27.244-85.622 35.026-27.243 58.379-70.055 58.379-116.755 0-81.732-66.161-147.893-147.893-147.893h-179.026c-27.244 0-46.703 19.459-46.703 46.703v404.757zM713.512 743.784c29.19 0 54.488 23.351 54.488 54.486 0 29.189-25.298 54.486-54.488 54.486h-101.188v-108.973h101.188zM612.324 650.378v-108.973h132.323c29.19 0 54.488 23.353 54.488 54.488 0 29.187-25.298 54.485-54.488 54.485h-132.323zM1126.054 335.136l-389.189-373.622c-17.513-17.513-46.703-17.513-64.216 1.946l-202.378 202.378c-19.459 17.513-19.459 46.703 0 66.161 17.513 17.513 46.703 17.513 66.161 0l169.298-171.243 356.108 342.486c17.513 17.513 48.648 17.513 66.161-1.946 17.513-17.513 17.513-48.648-1.946-66.161z" />
<glyph unicode="&#xe957;" glyph-name="data-authorization" d="M752 172c10 0 20 8.749 20 20v360h-100c-22.499 0-40 17.501-40 40v100h-200c-11.251 0-20-10-20-20v-240h-60v240c0 43.75 35.002 80 80 80h206.25c21.251 0 41.251-8.75 56.25-23.75l113.75-113.751c15.002-14.998 23.75-34.998 23.75-56.25v-366.25c0-44.998-36.25-80-80-80h-320c-44.998 0-80 35.002-80 80v100h60v-100c0-11.251 8.749-20 20-20h320zM563.251 483.251l100-100c11.248-12.502 11.248-31.251 0-42.502l-100-100c-12.502-12.499-31.251-12.499-42.502 0-12.499 11.251-12.499 30 0 42.502l48.752 48.749h-347.501c-17.5 0-30 12.499-30 30 0 16.25 12.5 30 30 30h347.501l-48.752 48.749c-12.499 11.251-12.499 30 0 42.502 11.251 11.248 30 11.248 42.502 0z" />
<glyph unicode="&#xe958;" glyph-name="document-color-filed" horiz-adv-x="986" d="M862.822 776.642c-45.606 14.38-95.733 20.543-143.804 20.543-80.119 0-166.4-16.434-225.974-61.63-59.578 45.195-145.858 61.63-225.977 61.63s-166.4-16.434-225.975-61.63v-601.916c0-10.27 10.271-20.544 20.543-20.544 4.109 0 6.163 2.056 10.272 2.056 55.467 26.707 135.585 45.196 195.16 45.196 80.119 0 166.399-16.437 225.977-61.63 55.467 34.922 156.126 61.63 225.974 61.63 67.793 0 137.641-12.326 195.159-43.141 4.111-2.056 6.163-2.056 10.274-2.056 10.27 0 20.541 10.27 20.541 20.544v599.86c-24.652 18.489-51.355 30.815-82.17 41.086zM862.822 221.977c-45.196 14.378-94.5 20.541-143.804 20.541-69.848 0-170.507-26.704-225.974-61.63v472.495c55.467 34.924 156.126 61.63 225.974 61.63 49.304 0 98.607-6.163 143.804-20.543v-472.493zM719.019 550.665c36.155 0 71.081-3.698 102.715-10.68v62.45c-32.457 6.163-67.379 9.861-102.715 9.861-69.848 0-133.12-11.915-184.889-34.1v-68.206c46.429 26.298 110.933 40.676 184.889 40.676zM534.13 468.905v-68.202c46.429 26.294 110.933 40.676 184.889 40.676 36.155 0 71.081-3.698 102.715-10.684v62.453c-32.457 6.163-67.379 9.861-102.715 9.861-69.848 0-133.12-12.326-184.889-34.103zM719.019 393.307c-69.848 0-133.12-11.916-184.889-34.103v-68.202c46.429 26.294 110.933 40.676 184.889 40.676 36.155 0 71.081-3.698 102.715-10.684v62.453c-32.457 6.573-67.379 9.861-102.715 9.861z" />
<glyph unicode="&#xe959;" glyph-name="uaepass-arrow-45-deg" horiz-adv-x="945" d="M941.536 191.385c0-44.921-35.076-79.383-76.304-79.383-41.236 0-74.461 35.076-74.461 78.152v232.001l9.846 228.922-98.465-110.153-568.615-567.996c-16.615-16.62-35.692-25.238-56-25.238-41.231 0-78.154 38.156-78.154 78.155 0 19.692 9.231 39.999 25.231 56.005l568 568.612 110.154 97.846-238.154-8.616h-223.385c-42.461 0-77.539 33.231-77.539 73.846 0 41.231 33.231 75.693 78.769 75.693h617.849c48.616 0 80.612-32.615 80.612-80.616l0.614-617.23z" />
<glyph unicode="&#xe95a;" glyph-name="stars-icon" horiz-adv-x="991" d="M474.994 664.039c-4.552 0-7.396 3.13-7.967 7.398-7.396 45.807-7.112 46.945-55.481 55.481-4.836 0.854-7.68 3.699-7.68 8.251 0 4.268 2.844 7.113 7.112 7.967 49.221 9.389 48.937 10.527 56.049 55.481 0.571 4.552 3.416 7.682 7.967 7.682s7.399-3.129 8.251-7.397c7.396-46.376 6.828-47.799 55.765-55.765 4.268-0.569 7.396-3.699 7.396-7.967 0-4.552-2.844-7.397-7.396-8.251-48.937-9.389-48.082-10.243-55.765-55.765-0.852-3.983-3.7-7.113-8.251-7.113zM336.721 459.756c-6.83 0-11.951 4.836-12.805 12.235-9.105 74.257-11.665 76.82-88.2 88.484-7.966 1.14-12.803 5.691-12.803 12.803 0 6.828 4.837 11.664 11.381 12.803 77.957 14.227 80.518 14.511 89.623 88.485 0.853 7.397 5.975 12.234 12.805 12.234 6.828 0 11.948-4.837 12.803-11.95 9.672-76.25 11.948-78.242 89.62-88.769 6.544-0.852 11.383-5.976 11.383-12.803s-4.839-11.664-11.383-12.803c-78.24-14.227-79.948-14.795-89.62-89.339-0.856-6.544-6.26-11.38-12.803-11.38zM540.434 143.089c-11.099 0-19.634 7.967-21.623 19.631-23.615 151.080-42.678 169.858-189.774 190.058-11.949 1.708-20.201 10.527-20.201 21.907 0 11.383 8.536 20.487 20.485 21.907 147.38 16.503 168.434 38.981 189.489 189.774 1.704 11.667 10.524 19.631 21.623 19.631 10.811 0 19.631-7.964 21.623-19.631 22.759-150.792 42.394-171.563 189.77-189.774 11.667-1.704 20.203-10.811 20.203-21.907 0-11.38-8.536-20.767-20.487-21.907-147.664-16.787-168.719-38.978-189.486-190.058-1.992-11.664-10.527-19.631-21.623-19.631z" />
<glyph unicode="&#xe95b;" glyph-name="people-icon" d="M690.406 440.189c-81.811 0-148.499 72.186-148.499 160.531 0 87.311 66.688 157.78 148.499 157.78 82.157 0 148.499-69.093 148.499-157.095 0-88.685-66.688-161.216-148.499-161.216zM294.406 437.094c-70.813 0-128.906 63.248-128.906 140.938 0 75.968 58.093 138.531 128.906 138.531 71.501 0 128.906-61.531 128.906-137.843 0-78.032-58.093-141.626-128.906-141.626zM690.406 492.093c50.531 0 93.155 48.47 93.155 109.312 0 60.158-41.936 105.189-93.155 105.189s-93.155-46.062-93.155-105.874c0-60.845 42.966-108.627 93.155-108.627zM294.406 488.314c42.282 0 78.032 40.218 78.032 90.406 0 48.467-34.72 86.624-78.032 86.624-42.625 0-77.688-38.844-77.688-87.312 0-49.501 35.406-89.718 77.688-89.718zM102.938 121.875c-46.406 0-69.781 18.906-69.781 57.405 0 114.125 116.875 218.627 260.906 218.627 56.718 0 110.002-15.126 154.344-44-15.469-11.002-28.189-23.034-38.845-36.781-33.344 19.594-72.531 29.904-115.499 29.904-112.406 0-209.687-79.405-209.687-164.656 0-6.874 3.094-9.626 10.312-9.626h251.626c-2.406-20.966 9.968-41.594 26.467-50.874h-269.843zM474.189 121.875c-57.062 0-84.221 17.187-84.221 54.998 0 90.064 113.782 220.346 300.096 220.346 186.656 0 300.435-130.282 300.435-220.346 0-37.811-27.155-54.998-84.563-54.998h-431.747zM457.686 173.782h464.752c8.938 0 12.717 2.406 12.717 9.622 0 56.72-87.312 161.907-245.091 161.907-157.44 0-244.752-105.187-244.752-161.907 0-7.216 3.437-9.622 12.374-9.622z" />
<glyph unicode="&#xe95c;" glyph-name="no-person" horiz-adv-x="1050" d="M644.262 681.969c37.548 0 68.268-30.72 68.268-68.268 0-33.792-24.919-62.124-57.004-67.244l-78.848 78.848c5.804 32.087 33.792 56.663 67.584 56.663zM644.262 750.235c-75.436 0-136.532-61.098-136.532-136.534 0-6.144 1.024-11.948 1.705-17.748l117.079-117.079c5.801-0.681 11.604-1.705 17.748-1.705 75.436 0 136.532 61.097 136.532 136.532s-61.097 136.534-136.532 136.534zM701.947 403.441l199.34-199.34h16.044v68.268c0 73.044-121.516 119.465-215.383 131.072zM576.338 336.197l63.828-63.828h-200.704c2.732 8.192 30.036 34.473 99.328 53.588l37.548 10.24zM180.39 828.4l-48.128-48.128 136.532-136.535v-98.304h-102.399v-68.265h102.399v-102.4h68.268v102.4h98.304l85.676-85.676c-75.095-20.48-149.847-61.1-149.847-119.124v-68.268h337.239l136.532-136.532 48.128 48.128-712.704 712.703zM337.062 545.434v30.039l30.036-30.039h-30.036z" />
<glyph unicode="&#xe95d;" glyph-name="person_add" d="M616.006 447.978c76.611 0 138.666 62.054 138.666 138.669 0 76.613-62.054 138.666-138.666 138.666-76.614 0-138.669-62.053-138.669-138.666s62.054-138.669 138.669-138.669zM616.006 655.979c38.131 0 69.331-31.202 69.331-69.333 0-38.134-31.2-69.334-69.331-69.334-38.134 0-69.334 31.2-69.334 69.334 0 38.131 31.2 69.333 69.334 69.333zM616.006 378.646c-92.56 0-277.334-46.454-277.334-138.669v-69.331h554.666v69.331c0 92.214-184.771 138.669-277.331 138.669zM408.006 239.978c7.626 24.963 114.746 69.334 208 69.334 93.6 0 201.066-44.72 208-69.334h-416zM304.005 343.978v104h104.001v69.334h-104.001v104h-69.333v-104h-104v-69.334h104v-104h69.333z" />
<glyph unicode="&#xe95e;" glyph-name="person_new" d="M605.333 608c0 32.666-18.667 63-46.665 80.5-29.167 16.333-65.335 16.333-93.338 0-29.163-17.5-46.665-47.834-46.665-80.5 0-33.833 17.502-64.167 46.665-81.668 28.002-16.333 64.171-16.333 93.338 0 27.998 17.501 46.665 47.835 46.665 81.668zM362.667 608c0 52.5 28 101.5 74.667 128.333 45.5 26.833 102.665 26.833 149.333 0 45.5-26.833 74.667-75.833 74.667-128.333 0-53.667-29.167-102.665-74.667-129.502-46.669-26.833-103.834-26.833-149.333 0-46.667 26.837-74.667 75.835-74.667 129.502zM307.833 216h407.166c-10.5 73.502-73.498 130.667-150.498 130.667h-106.167c-77.001 0-140-57.165-150.501-130.667zM250.667 193.835c0 115.499 92.167 208.832 207.667 208.832h106.167c115.499 0 208.832-93.333 208.832-208.832 0-18.667-16.333-33.835-34.999-33.835h-453.834c-18.667 0-33.833 15.168-33.833 33.835z" />
<glyph unicode="&#xe95f;" glyph-name="info_big_icon" horiz-adv-x="1056" d="M531.203 113.421c-190.336 0-347.992 157.318-347.992 347.99 0 190.334 157.32 347.992 347.656 347.992 190.669 0 348.326-157.658 348.326-347.992 0-190.672-157.658-347.99-347.99-347.99zM531.203 181.805c154.963 0 279.606 124.643 279.606 279.606s-124.982 279.269-279.942 279.269c-154.963 0-278.934-124.306-278.934-279.269s124.307-279.606 279.27-279.606zM529.181 571.907c-25.264 0-45.478 20.547-45.478 45.478 0 25.601 20.214 45.814 45.478 45.814 25.267 0 45.478-20.212 45.478-45.814 0-24.931-20.211-45.478-45.478-45.478zM472.25 276.131c-14.822 0-26.614 10.778-26.614 25.939 0 14.147 11.792 25.264 26.614 25.264h40.090v140.813h-34.026c-15.158 0-26.614 10.781-26.614 25.942 0 14.147 11.456 25.6 26.614 25.6h63.331c18.867 0 28.637-13.136 28.637-33.011v-159.344h37.728c14.822 0 26.614-11.117 26.614-25.264 0-15.162-11.792-25.939-26.614-25.939h-135.76z" />
<glyph unicode="&#xe960;" glyph-name="opened_locket" d="M252.139 139.835c-49.653 0-75.46 26.46-75.46 80.033v231.281c0 53.245 25.807 79.704 75.46 79.704h263.619v77.421c0 120.541 79.708 182.607 168.889 182.607 89.178 0 168.886-62.067 168.886-182.607v-66.641c0-21.886-13.718-32.991-30.379-32.991-16.986 0-30.708 12.086-30.708 32.991v72.521c0 76.44-49.655 118.254-107.799 118.254-58.474 0-107.799-41.813-107.799-118.254v-84.607c37.565-6.206 56.838-32.34 56.838-78.398v-231.281c0-53.574-25.805-80.033-75.459-80.033h-306.087zM261.612 198.308h287.466c13.722 0 21.234 8.167 21.234 23.847v226.707c0 15.68-7.512 23.518-21.234 23.518h-287.466c-13.393 0-21.56-7.838-21.56-23.518v-226.707c0-15.68 8.167-23.847 21.56-23.847z" />
<glyph unicode="&#xe961;" glyph-name="success_arrow" d="M217.68 654.96l260.347-111.627-260.694 34.667 0.347 76.96zM477.68 352.667l-260.347-111.627v76.96l260.347 34.667zM148.347 760l-0.347-242.667 520-69.333-520-69.333 0.347-242.667 727.653 312-727.653 312z" />
<glyph unicode="&#xe962;" glyph-name="check_icon" d="M400.896 313.664l-144.56 144.56-49.227-48.88 193.787-193.787 416 416-48.88 48.88-367.12-366.773z" />
<glyph unicode="&#xe963;" glyph-name="x-icon" d="M754.669 641.776l-48.88 48.88-193.786-193.787-193.787 193.787-48.88-48.88 193.787-193.787-193.787-193.786 48.88-48.88 193.787 193.786 193.786-193.786 48.88 48.88-193.786 193.786 193.786 193.787z" />
<glyph unicode="&#xe964;" glyph-name="upload_document" d="M426.663 319.97h170.666v170.667h113.779l-199.113 199.113-199.11-199.113h113.778v-170.667zM511.996 609.252l61.726-61.725h-33.28v-170.666h-56.887v170.666h-33.28l61.722 61.725zM312.885 263.083h398.223v-56.887h-398.223v56.887z" />
<glyph unicode="&#xe965;" horiz-adv-x="887" d="M771.41 611.867h-136.533c-45.165 0-81.92 36.754-81.92 81.919v191.147h-436.907v-873.813h655.36v600.747z" />
<glyph unicode="&#xe966;" horiz-adv-x="887" d="M771.413 666.492v16.002l-163.84 163.84v-152.535c0-15.019 12.288-27.307 27.307-27.307h136.533z" />
<glyph unicode="&#xe967;" horiz-adv-x="887" d="M810.028 721.080l-202.452 202.452c-10.24 10.243-24.129 15.999-38.612 16.002h-452.91c-30.162 0-54.613-24.451-54.613-54.613v-873.813c0-30.164 24.451-54.613 54.613-54.613h655.358c30.164 0 54.617 24.45 54.617 54.613v671.361c-0.003 14.483-5.762 28.372-16.002 38.612zM771.413 682.468v-16.002h-136.533c-15.066 0.030-27.276 12.238-27.307 27.307v152.535l163.84-163.84zM116.055 873.997v-851.968c0-6.031 4.89-10.923 10.923-10.923h633.513c6.035 0 10.923 4.891 10.923 10.923v589.824h-136.533c-45.24 0-81.92 36.677-81.92 81.92v191.147h-425.982c-6.007 0-10.923-4.915-10.923-10.923z" />
<glyph unicode="&#xe968;" horiz-adv-x="887" d="M689.493 447.986h-491.52c-15.081 0-27.307 12.227-27.307 27.307s12.226 27.307 27.307 27.307h491.52c15.080 0 27.307-12.227 27.307-27.307s-12.227-27.307-27.307-27.307z" />
<glyph unicode="&#xe969;" horiz-adv-x="887" d="M225.278 120.334v218.453c0 30.16 24.451 54.613 54.613 54.613h327.682c30.16 0 54.613-24.453 54.613-54.613v-218.453c0-30.164-24.453-54.613-54.613-54.613h-327.682c-30.162 0-54.613 24.45-54.613 54.613zM290.814 120.334h305.509c2.884-0.089 5.68 1.004 7.741 3.024 2.062 2.017 3.212 4.792 3.178 7.68-0.324 37.028 0.113 160.126 0.328 197.154 0 6.007-4.912 10.595-10.919 10.595h-305.836c-6.007 0-10.923-4.915-10.923-10.923v-196.608c0-6.031 4.89-10.923 10.923-10.923zM157.012 120.334h-95.573c-30.162 0-54.613 24.45-54.613 54.613v109.227c0 30.16 24.451 54.613 54.613 54.613h95.573c7.541 0 13.653-6.113 13.653-13.653v-191.147c0-7.54-6.113-13.653-13.653-13.653zM730.453 120.334h95.57c30.164 0 54.613 24.45 54.613 54.613v109.227c0 30.16-24.45 54.613-54.613 54.613h-95.57c-7.543 0-13.653-6.113-13.653-13.653v-191.147c0-7.54 6.11-13.653 13.653-13.653z" />
<glyph unicode="&#xe96a;" horiz-adv-x="918" d="M790.952 621.021h-141.241c-46.723 0-84.745 38.022-84.745 84.745v197.738h-451.972v-903.945h677.959v621.462z" />
<glyph unicode="&#xe96b;" horiz-adv-x="918" d="M790.952 677.517v16.553l-169.49 169.49v-157.795c0-15.537 12.712-28.248 28.248-28.248h141.241z" />
<glyph unicode="&#xe96c;" horiz-adv-x="918" d="M830.895 734.014l-209.433 209.433c-10.593 10.596-24.961 16.55-39.943 16.553h-468.526c-31.202 0-56.497-25.294-56.497-56.497v-903.945c0-31.204 25.294-56.497 56.497-56.497h677.959c31.204 0 56.497 25.293 56.497 56.497v694.512c-0.004 14.983-5.957 29.35-16.553 39.943zM790.952 694.071v-16.553h-141.241c-15.59 0.031-28.216 12.66-28.248 28.248v157.795l169.49-169.49zM112.993 892.204v-881.346c0-6.239 5.059-11.299 11.299-11.299h655.36c6.239 0 11.299 5.060 11.299 11.299v610.163h-141.241c-46.804 0-84.745 37.942-84.745 84.745v197.738h-440.673c-6.215 0-11.299-5.085-11.299-11.299z" />
<glyph unicode="&#xe96d;" horiz-adv-x="918" d="M706.207 451.531h-508.469c-15.601 0-28.248 12.648-28.248 28.248s12.647 28.248 28.248 28.248h508.469c15.6 0 28.248-12.648 28.248-28.248s-12.648-28.248-28.248-28.248z" />
<glyph unicode="&#xe96e;" horiz-adv-x="918" d="M225.986 112.552v225.986c0 31.204 25.294 56.497 56.497 56.497h338.979c31.204 0 56.497-25.293 56.497-56.497v-225.986c0-31.204-25.293-56.497-56.497-56.497h-338.979c-31.202 0-56.497 25.293-56.497 56.497zM293.782 112.552h316.042c2.984-0.092 5.879 1.038 8.012 3.128s3.319 4.958 3.287 7.945c-0.339 38.305 0.113 165.648 0.339 203.953 0 6.215-5.085 10.96-11.299 10.96h-316.381c-6.215 0-11.299-5.085-11.299-11.299v-203.388c0-6.239 5.059-11.299 11.299-11.299zM155.366 112.552h-98.869c-31.202 0-56.497 25.293-56.497 56.497v112.993c0 31.204 25.294 56.497 56.497 56.497h98.869c7.8 0 14.124-6.324 14.124-14.124v-197.738c0-7.8-6.324-14.124-14.124-14.124zM748.579 112.552h98.869c31.204 0 56.497 25.293 56.497 56.497v112.993c0 31.204-25.293 56.497-56.497 56.497h-98.869c-7.8 0-14.124-6.324-14.124-14.124v-197.738c0-7.8 6.324-14.124 14.124-14.124z" />
<glyph unicode="&#xe96f;" glyph-name="earth" d="M511.656 794.667c-191.36 0-346.32-155.307-346.32-346.667s154.96-346.666 346.32-346.666c191.707 0 347.013 155.306 347.013 346.666s-155.306 346.667-347.013 346.667zM751.896 586.667h-102.267c-11.093 43.333-27.040 84.933-47.84 123.413 63.787-21.84 116.827-66.213 150.107-123.413zM512.003 723.947c28.773-41.6 51.306-87.707 66.213-137.28h-132.427c14.907 49.573 37.44 95.68 66.214 137.28zM243.683 378.667c-5.547 22.187-9.014 45.413-9.014 69.333s3.467 47.147 9.014 69.334h117.173c-2.773-22.88-4.853-45.76-4.853-69.334 0-23.573 2.080-46.453 4.853-69.333h-117.173zM272.109 309.334h102.267c11.093-43.334 27.040-84.934 47.84-123.414-63.787 21.84-116.827 65.867-150.107 123.414zM374.376 586.667h-102.267c33.28 57.547 86.32 101.573 150.107 123.413-20.8-38.48-36.747-80.080-47.84-123.413zM512.003 172.054c-28.774 41.6-51.307 87.706-66.214 137.28h132.427c-14.907-49.574-37.44-95.68-66.213-137.28zM593.123 378.667h-162.24c-3.12 22.88-5.547 45.76-5.547 69.333 0 23.574 2.427 46.8 5.547 69.334h162.24c3.12-22.534 5.546-45.76 5.546-69.334 0-23.573-2.426-46.453-5.546-69.333zM601.789 185.92c20.8 38.48 36.747 80.080 47.84 123.414h102.267c-33.28-57.2-86.32-101.574-150.107-123.414zM663.149 378.667c2.774 22.88 4.854 45.76 4.854 69.333 0 23.574-2.080 46.454-4.854 69.334h117.174c5.546-22.187 9.013-45.414 9.013-69.334s-3.467-47.146-9.013-69.333h-117.174z" />
<glyph unicode="&#xe970;" glyph-name="play" d="M425.336 604v-312l242.667 156-242.667 156zM789.336 725.334h-554.667c-38.133 0-69.333-31.2-69.333-69.334v-416c0-38.133 31.2-69.333 69.333-69.333h554.667c38.133 0 69.333 31.2 69.333 69.333v416c0 38.134-31.2 69.334-69.333 69.334zM789.336 239.654h-554.667v416.693h554.667v-416.693z" />
<glyph unicode="&#xe971;" glyph-name="refresh" d="M754.664 586.667l-138.667-138.667h104c0-114.746-93.253-208-208-208-35.013 0-68.293 8.667-97.066 24.267l-50.614-50.613c42.64-27.040 93.254-42.987 147.68-42.987 153.227 0 277.334 124.107 277.334 277.333h104l-138.667 138.667zM303.997 448c0 114.747 93.254 208 208 208 35.014 0 68.294-8.666 97.067-24.266l50.613 50.613c-42.64 27.040-93.253 42.987-147.68 42.987-153.226 0-277.333-124.107-277.333-277.334h-104l138.667-138.666 138.666 138.666h-104z" />
</font>
</defs>
</svg>
